<?xml version="1.0" standalone="no"?>
<!DOCTYPE svg PUBLIC "-//W3C//DTD SVG 1.1//EN" "http://www.w3.org/Graphics/SVG/1.1/DTD/svg11.dtd" >
<svg xmlns="http://www.w3.org/2000/svg">
<metadata>Generated by IcoMoon</metadata>
<defs>
<font id="icomoon" horiz-adv-x="1024">
<font-face units-per-em="1024" ascent="960" descent="-64" />
<missing-glyph horiz-adv-x="1024" />
<glyph unicode="&#x20;" horiz-adv-x="512" d="" />
<glyph unicode="&#xe900;" glyph-name="pa-admin-icon" d="M1024.437 448.219c-0.596-158.073-72.763-299.17-185.761-392.653l-0.858-0.689h-13.548l-104.891 323.851 285.828 207.597 3.059-11.8c9.961-37.82 15.839-81.301 16.17-126.103l0.001-0.204zM798.047 22.972l-10.489-6.556c-77.973-50.165-173.175-79.974-275.339-79.974s-197.366 29.808-277.383 81.202l2.043-1.228-10.489 6.556 285.828 206.723zM305.058 380.913l-107.076-329.533h-9.178c-115.562 94.543-188.753 237.138-188.804 396.829v0.009c0.139 45.7 6.029 89.961 16.983 132.181l-0.813-3.69 3.059 11.8zM493.426 960l-109.262-336.963h-352.697l4.37 13.111c73.442 181.603 242.662 310.074 443.369 323.333l1.545 0.082zM992.97 623.037h-352.697l-109.262 336.963h12.674c202.344-13.418 371.597-142.068 443.682-320.403l1.232-3.448z" />
<glyph unicode="&#xe901;" glyph-name="horizontal-mouse-scroll" d="M693.248 523.776c0 98.304-79.872 177.152-177.152 177.152h-8.192c-98.304 0-177.152-79.872-177.152-177.152v-150.528c0-98.304 79.872-177.152 177.152-177.152h8.192c98.304 0 177.152 79.872 177.152 177.152v150.528zM663.552 372.224c0-40.96-16.384-77.824-43.008-104.448s-63.488-43.008-104.448-43.008h-8.192c-40.96 0-77.824 16.384-104.448 43.008s-43.008 63.488-43.008 104.448v151.552c0 40.96 16.384 77.824 43.008 104.448s63.488 43.008 104.448 43.008h8.192c40.96 0 77.824-16.384 104.448-43.008s43.008-63.488 43.008-104.448v-151.552zM512 551.424c-8.192 0-15.36-7.168-15.36-15.36v-44.032c0-8.192 7.168-15.36 15.36-15.36s15.36 7.168 15.36 15.36v44.032c-1.024 8.192-7.168 15.36-15.36 15.36zM54.272 457.216c-4.096-5.12-4.096-13.312 0-18.432l59.392-74.752c5.12-6.144 14.336-7.168 20.48-2.048s7.168 14.336 2.048 20.48v0l-51.2 65.536 52.224 65.536c5.12 6.144 4.096 15.36-2.048 20.48s-15.36 4.096-20.48-2.048l-60.416-74.752zM886.784 382.464c-5.12-6.144-4.096-15.36 2.048-20.48s15.36-4.096 20.48 2.048l59.392 74.752c4.096 5.12 4.096 13.312 0 18.432l-59.392 74.752c-5.12 6.144-14.336 7.168-20.48 2.048s-7.168-14.336-2.048-20.48v0l52.224-65.536-52.224-65.536z" />
<glyph unicode="&#xe902;" glyph-name="premium-alert-box" d="M910.872 274.408l-55.589 92.648c-14.074 25.371-23.211 55.291-25.322 87.132l-0.034 0.639v140.922c0 0.065 0 0.142 0 0.22 0 136.023-85.685 252.033-206.024 296.999l-2.189 0.717c-20.438 39.515-61.001 66.058-107.764 66.058s-87.326-26.543-107.446-65.384l-0.317-0.674c-123.232-45.327-209.644-161.473-210.164-297.872v-140.986c-1.67-32.34-10.317-62.311-24.451-88.922l0.558 1.151-55.101-92.648c-12.431-18.353-19.845-40.985-19.845-65.349 0-53.565 35.838-98.76 84.844-112.915l0.83-0.205c46.845-16.458 103.144-30.865 161.033-40.585l6.22-0.863c20.763-72.219 86.235-124.164 163.84-124.164s143.077 51.945 163.544 122.963l0.296 1.201c64.177 10.651 120.473 25.055 174.799 43.698l-7.546-2.251c35.376 11.542 62.924 38.289 75.319 72.319l0.262 0.824c4.983 12.684 7.871 27.373 7.871 42.736 0 23.151-6.559 44.771-17.919 63.102l0.296-0.513zM513.95-18.164c-33.473 0.3-63.727 13.833-85.836 35.611l0.015-0.015c-9.263 9.323-17.080 20.099-23.076 31.951l-0.33 0.719c32.786-4.037 70.737-6.34 109.227-6.34s76.442 2.304 113.726 6.78l-4.499-0.44c-19.3-42.029-60.856-70.778-109.173-71.192h-0.054zM875.276 188.099c-8.039-20.631-24.39-36.504-44.826-43.725l-0.522-0.161c-47.561-16.781-104.109-30.892-162.37-39.797l-5.371-0.675-26.331-3.413c-36.608-4.889-78.931-7.68-121.905-7.68s-85.298 2.791-126.798 8.201l4.893-0.521-26.331 3.413c-63.444 9.58-119.823 23.689-173.998 42.512l6.744-2.039c-22.384 6.443-40.090 22.549-48.583 43.39l-0.179 0.496c-2.387 6.912-3.765 14.877-3.765 23.165 0 14.975 4.5 28.899 12.223 40.494l-0.168-0.268 56.076 93.135c17.594 31.864 28.736 69.529 30.697 109.606l0.023 0.596v140.922c0.263 118.254 76.743 218.576 182.91 254.468l1.897 0.557h3.413c23.909 7.739 51.418 12.2 79.97 12.2s56.061-4.462 81.869-12.725l-1.899 0.525c109.671-35.033 187.778-135.849 188.221-254.972v-140.975c1.891-41.72 13.224-80.404 31.894-114.496l-0.686 1.368 56.076-93.135c6.908-11.053 11.004-24.478 11.004-38.86 0-8.791-1.53-17.224-4.339-25.048l0.162 0.517zM513.95 863.939c-28.562-0.053-56.065-4.507-81.893-12.718l1.923 0.528c23.78 6.745 51.090 10.623 79.306 10.623 14.508 0 28.777-1.025 42.738-3.007l-1.603 0.187c14.879-1.706 28.273-4.447 41.22-8.234l-1.723 0.432c-23.904 7.684-51.407 12.137-79.943 12.19h-0.027z" />
<glyph unicode="&#xe903;" glyph-name="premium-background-transition" d="M73.63 66.682c-2.882 4.182-5.645 8.979-8.019 13.994l-0.27 0.634s0 0 0 2.926 4.876-11.703 8.29-17.554zM146.286 0.366h-2.926l-9.752 5.364c3.455-1.802 7.642-3.613 11.962-5.143l0.717-0.221zM168.716-7.436c-6.4 1.645-11.917 3.646-17.178 6.103l0.599-0.251h-2.926c5.381-2.162 11.901-4.175 18.613-5.683l0.892-0.168zM877.714 374.857h-128.731l90.697 90.697c28.074 25.684 45.614 62.481 45.614 103.375s-17.54 77.692-45.508 103.279l-0.106 0.096-103.375 103.375c-25.816 27.806-62.57 45.149-103.375 45.149s-77.559-17.343-103.294-45.060l-0.081-0.089-90.697-90.697v128.731c0.096 1.937 0.151 4.207 0.151 6.49 0 77.29-62.656 139.947-139.947 139.947-2.282 0-4.552-0.055-6.808-0.163l0.318 0.012h-146.286c-1.937 0.096-4.207 0.151-6.49 0.151-77.29 0-139.947-62.656-139.947-139.947 0-2.282 0.055-4.552 0.163-6.808l-0.012 0.318v-658.286c0.090-15.751 1.683-31.074 4.643-45.903l-0.255 1.53c1.766-8.199 3.615-14.899 5.782-21.453l-0.418 1.461c4.176-14.837 9.833-27.792 16.988-39.747l-0.409 0.737 5.851-10.728c2.116-4.084 4.548-7.606 7.362-10.782l-0.048 0.055c0-3.413 4.389-6.827 7.314-10.24s5.364-6.827 8.29-9.752c2.6-3.674 5.49-6.873 8.714-9.698l0.063-0.054c6.094-6.247 12.622-12.001 19.559-17.241l0.433-0.314c3.135-2.93 6.653-5.516 10.455-7.66l0.273-0.142 21.455-13.166c4.209-2.478 9.332-5.088 14.61-7.412l0.993-0.39 22.43-8.29 21.455-5.364c13.118-2.929 28.244-4.696 43.752-4.875l0.133-0.001h658.286c1.937-0.096 4.207-0.151 6.49-0.151 77.29 0 139.947 62.656 139.947 139.947 0 2.282-0.055 4.552-0.163 6.808l0.012-0.318v146.286c0.096 1.937 0.151 4.207 0.151 6.49 0 77.29-62.656 139.947-139.947 139.947-2.282 0-4.552-0.055-6.808-0.163l0.318 0.012zM438.857 155.429v460.8l124.83 125.318c17.118 18.974 41.794 30.848 69.242 30.848s52.123-11.874 69.169-30.765l0.073-0.082 103.375-103.375c19.256-16.975 31.34-41.697 31.34-69.242s-12.084-52.267-31.24-69.155l-0.101-0.087-132.145-132.145-234.545-236.495c0 8.777 0 16.579 0 24.381zM184.32-11.825l-15.604 4.389c-6.4 1.645-11.917 3.646-17.178 6.103l0.599-0.251h-8.777l-9.752 5.364c-8.232 4.918-15.235 9.746-21.911 14.973l0.456-0.344c-3.663 4.439-7.2 9.374-10.396 14.541l-0.331 0.575-5.364 5.851-2.438 2.438c-5.915 6.68-11.53 13.999-16.614 21.701l-0.453 0.73c-2.882 4.182-5.645 8.979-8.019 13.994l-0.27 0.634s0 0 0 2.926 0 0 0 0l-4.389 11.215-2.926 8.29c-1.54 4.297-3.054 9.69-4.231 15.207l-0.158 0.885c-3.714 11.063-6.471 23.975-7.747 37.319l-0.055 0.715v658.286c-0.127 1.81-0.2 3.922-0.2 6.051 0 50.629 41.043 91.672 91.672 91.672 2.129 0 4.241-0.073 6.334-0.215l-0.283 0.015h146.286c1.81 0.127 3.922 0.2 6.051 0.2 50.629 0 91.672-41.043 91.672-91.672 0-2.129-0.073-4.241-0.215-6.334l0.015 0.283v-658.286c0-5.364 0-11.215 0-16.579-1.034-11.867-3.278-22.806-6.634-33.246l0.295 1.063c-8.341-27.682-23.012-51.337-42.386-70.181l-0.037-0.036s0 0 0 0 0 0 0 0c-3.863-3.67-7.995-7.184-12.315-10.464l-0.363-0.264c-12.069-10.582-26.11-19.299-41.441-25.493l-0.982-0.35-13.653-5.364c-15.761-5.675-33.956-9.203-52.899-9.747l-0.252-0.006c-12.432 0.020-24.562 1.262-36.292 3.611l1.184-0.198zM975.238 82.286c0.127-1.81 0.2-3.922 0.2-6.051 0-50.629-41.043-91.672-91.672-91.672-2.129 0-4.241 0.073-6.334 0.215l0.283-0.015h-520.777c6.429 5.073 12.162 10.341 17.476 16.007l0.079 0.085 3.901 3.901 322.316 321.341h177.006c1.81 0.127 3.922 0.2 6.051 0.2 50.629 0 91.672-41.043 91.672-91.672 0-2.129-0.073-4.241-0.215-6.334l0.015 0.283zM219.429 82.286c-40.396 0-73.143 32.747-73.143 73.143s32.747 73.143 73.143 73.143c40.396 0 73.143-32.747 73.143-73.143v0c0-40.396-32.747-73.143-73.143-73.143v0zM219.429 179.81c-13.465 0-24.381-10.916-24.381-24.381s10.916-24.381 24.381-24.381c13.465 0 24.381 10.916 24.381 24.381v0c0 13.465-10.916 24.381-24.381 24.381v0z" />
<glyph unicode="&#xe904;" glyph-name="premium-banner" d="M658.286 960h-292.571c-256.488 0-365.714-109.227-365.714-365.714v-292.571c-0.203-5.331-0.318-11.591-0.318-17.879 0-65.314 12.467-127.716 35.151-184.956l-1.187 3.398c1.256-3.049 2.563-5.614 4.046-8.060l-0.145 0.258c50.712-109.714 157.501-158.476 328.168-158.476h292.571c256.488 0 365.714 109.227 365.714 365.714v292.571c0 256.488-109.227 365.714-365.714 365.714zM975.238 301.714c0-231.131-85.821-316.952-316.952-316.952h-292.571c-146.286 0-232.594 33.646-277.455 115.566l222.842 150.187c12.773 7.957 28.279 12.674 44.886 12.674 19.924 0 38.261-6.789 52.826-18.18l-0.189 0.142 16.091-14.141c22.71-19.145 52.297-30.78 84.602-30.78s61.892 11.635 84.8 30.943l-0.198-0.163 203.337 174.080c14.264 11.582 32.644 18.595 52.663 18.595s38.399-7.013 52.818-18.717l-0.155 0.122 72.655-60.952zM975.238 408.503l-39.010 33.646c-22.817 19.093-52.477 30.689-84.846 30.689s-62.029-11.595-85.054-30.858l0.209 0.17-202.85-174.080c-14.294-11.499-32.666-18.457-52.663-18.457s-38.369 6.958-52.826 18.585l0.164-0.127-16.091 14.629c-23.088 18.816-52.871 30.215-85.316 30.215-27.171 0-52.475-7.994-73.688-21.758l0.527 0.321-215.040-146.286c-12.822 42.504-20.202 91.349-20.202 141.919 0 5.136 0.076 10.254 0.227 15.354l-0.018-0.747v292.571c0 231.131 85.821 316.952 316.952 316.952h292.571c231.131 0 316.952-85.821 316.952-316.952zM365.714 521.143c-67.326 0-121.905 54.579-121.905 121.905s54.579 121.905 121.905 121.905c67.326 0 121.905-54.579 121.905-121.905v0c0-67.326-54.579-121.905-121.905-121.905v0zM365.714 716.19c-40.396 0-73.143-32.747-73.143-73.143s32.747-73.143 73.143-73.143c40.396 0 73.143 32.747 73.143 73.143v0c0 40.396-32.747 73.143-73.143 73.143v0zM37.547 94.476s0 0 0 0c-1.317 1.953-2.328 4.236-2.899 6.688l-0.027 0.138c0.971-2.726 1.958-4.979 3.078-7.152l-0.152 0.325z" />
<glyph unicode="&#xe905;" glyph-name="premium-behance-feed" d="M365.714 131.048h-292.571c-0.739-0.028-1.607-0.043-2.479-0.043-38.207 0-69.336 30.305-70.661 68.189l-0.003 0.121v492.495c-0.040 0.89-0.063 1.935-0.063 2.984 0 37.773 29.826 68.58 67.212 70.154l0.142 0.005h249.661c94.201-0.781 170.263-77.326 170.263-171.636 0-52.761-23.806-99.962-61.262-131.448l-0.262-0.215c65.447-24.869 111.115-87.071 111.115-159.94 0-94.257-76.41-170.667-170.667-170.667-0.149 0-0.299 0-0.448 0.001h0.023zM48.762 423.619v-219.429c-0.099-0.785-0.156-1.692-0.156-2.614 0-11.142 8.305-20.345 19.062-21.755l0.111-0.012h297.935c67.326 0 121.905 54.579 121.905 121.905s-54.579 121.905-121.905 121.905v0zM48.762 472.381h268.19c0.882-0.023 1.92-0.037 2.961-0.037 64.694 0 117.329 51.634 118.941 115.94l0.003 0.15v5.851c0.023 0.882 0.037 1.92 0.037 2.961 0 64.694-51.634 117.329-115.94 118.941l-0.15 0.003h-249.661c-0.785 0.099-1.692 0.156-2.614 0.156-11.142 0-20.345-8.305-21.755-19.062l-0.012-0.111v-224.792zM887.467 131.048h-82.895c-121.187 0-219.429 98.242-219.429 219.429s98.242 219.429 219.429 219.429c121.187 0 219.429-98.242 219.429-219.429v0c0-13.465-10.916-24.381-24.381-24.381v0h-365.714c12.334-83.118 83.145-146.182 168.705-146.286h82.906c13.465 0 24.381-10.916 24.381-24.381s-10.916-24.381-24.381-24.381v0zM633.905 362.667h341.333c0 94.257-76.41 170.667-170.667 170.667s-170.667-76.41-170.667-170.667v0zM877.714 643.048h-146.286c-13.465 0-24.381 10.916-24.381 24.381s10.916 24.381 24.381 24.381v0h146.286c13.465 0 24.381-10.916 24.381-24.381s-10.916-24.381-24.381-24.381v0z" />
<glyph unicode="&#xe906;" glyph-name="premium-blog" d="M847.97 890.27c-36.029 39.75-86.563 65.781-143.183 69.693l-0.664 0.037c-59.482-5.183-111.228-34.548-145.961-78.085l-0.325-0.422-67.779-69.73-2.438-2.926-331.581-351.086c-19.79-22.608-33.775-50.775-39.343-81.861l-0.154-1.035-19.017-158.476c-0.647-4.375-1.016-9.425-1.016-14.561 0-28.977 11.756-55.209 30.76-74.185l0.001-0.001c17.39-16.316 40.854-26.338 66.659-26.338 0.394 0 0.787 0.002 1.18 0.007l-0.060-0.001c3.072-0.343 6.633-0.539 10.24-0.539s7.168 0.196 10.674 0.577l-0.434-0.038 157.501 26.819c31.902 6.841 59.458 22.333 80.941 43.882l0.004 0.004 332.069 353.036 6.827 6.339 62.415 65.829c37.723 33.99 63.594 80.49 71.055 132.919l0.137 1.177c-0.584 64.448-30.989 121.676-78.065 158.63l-0.441 0.334zM420.328 207.604c-14.579-13.764-32.68-23.955-52.805-29.077l-0.833-0.18-157.501-26.819c-3.921-1.006-8.422-1.584-13.058-1.584-13.682 0-26.189 5.031-35.771 13.344l0.068-0.057c-9.654 9.915-15.607 23.474-15.607 38.423 0 3.657 0.356 7.23 1.036 10.688l-0.057-0.349 18.042 157.989c3.993 21.581 13.097 40.563 26.015 56.292l-0.172-0.215 302.811 320.366c32.815-109.422 119.466-193.002 228.417-220.896l2.226-0.483zM821.15 631.345l-58.514-60.952c-115.555 16.524-206.883 103.407-229.854 215.228l-0.303 1.763 58.514 61.44c77.531 80.945 140.434 83.383 223.817 6.339 36.994-28.132 61.116-71.541 62.895-120.649l0.008-0.28c-6.9-41.355-27.286-77.053-56.402-103.232l-0.162-0.143zM950.857-56.198h-877.714c-13.465 0-24.381 10.916-24.381 24.381v0c0 13.465 10.916 24.381 24.381 24.381v0h877.714c13.465 0 24.381-10.916 24.381-24.381v0c0-13.465-10.916-24.381-24.381-24.381v0z" />
<glyph unicode="&#xe907;" glyph-name="premium-bullet-list" d="M997.053 16.842h-538.947c-14.883 0-26.947 12.065-26.947 26.947s12.065 26.947 26.947 26.947v0h538.947c14.883 0 26.947-12.065 26.947-26.947s-12.065-26.947-26.947-26.947v0zM997.053 394.105h-538.947c-14.883 0-26.947 12.065-26.947 26.947s12.065 26.947 26.947 26.947v0h538.947c14.883 0 26.947-12.065 26.947-26.947s-12.065-26.947-26.947-26.947v0zM997.053 771.368h-538.947c-14.883 0-26.947 12.065-26.947 26.947s12.065 26.947 26.947 26.947v0h538.947c14.883 0 26.947-12.065 26.947-26.947s-12.065-26.947-26.947-26.947v0zM80.842 717.474c-0.092-0.001-0.2-0.002-0.309-0.002-7.321 0-13.916 3.105-18.54 8.071l-0.014 0.015-53.895 53.895c-4.828 4.828-7.813 11.497-7.813 18.863 0 14.733 11.943 26.677 26.677 26.677 7.367 0 14.036-2.986 18.863-7.813v0l35.032-34.493 142.821 142.282c4.828 4.828 11.497 7.813 18.863 7.813 14.733 0 26.677-11.943 26.677-26.677 0-7.367-2.986-14.036-7.813-18.863l-161.684-161.684c-4.639-4.981-11.234-8.086-18.554-8.086-0.109 0-0.217 0.001-0.325 0.002h0.016zM80.842 340.211c-0.092-0.001-0.2-0.002-0.309-0.002-7.321 0-13.916 3.105-18.54 8.071l-0.014 0.015-53.895 53.895c-4.828 4.828-7.813 11.497-7.813 18.863 0 14.733 11.943 26.677 26.677 26.677 7.367 0 14.036-2.986 18.863-7.813v0l35.032-34.493 142.821 142.282c4.828 4.828 11.497 7.813 18.863 7.813 14.733 0 26.677-11.943 26.677-26.677 0-7.367-2.986-14.036-7.813-18.863v0l-161.684-161.684c-4.639-4.981-11.234-8.086-18.554-8.086-0.109 0-0.217 0.001-0.325 0.002h0.016zM80.842-37.053c-0.092-0.001-0.2-0.002-0.309-0.002-7.321 0-13.916 3.105-18.54 8.071l-0.014 0.015-53.895 53.895c-4.828 4.828-7.813 11.497-7.813 18.863 0 14.733 11.943 26.677 26.677 26.677 7.367 0 14.036-2.986 18.863-7.813v0l35.032-34.493 142.821 142.282c4.828 4.828 11.497 7.813 18.863 7.813 14.733 0 26.677-11.943 26.677-26.677 0-7.367-2.986-14.036-7.813-18.863v0l-161.684-161.684c-4.639-4.981-11.234-8.086-18.554-8.086-0.109 0-0.217 0.001-0.325 0.002h0.016z" />
<glyph unicode="&#xe908;" glyph-name="premium-button" d="M731.429 155.429h-73.63c-13.465 0-24.381 10.916-24.381 24.381s10.916 24.381 24.381 24.381v0h73.63c134.652 0 243.81 109.157 243.81 243.81s-109.157 243.81-243.81 243.81v0h-73.63c-13.465 0-24.381 10.916-24.381 24.381s10.916 24.381 24.381 24.381v0h73.63c161.583 0 292.571-130.989 292.571-292.571s-130.989-292.571-292.571-292.571v0zM365.714 155.429h-73.143c-161.583 0-292.571 130.989-292.571 292.571s130.989 292.571 292.571 292.571v0h73.143c13.465 0 24.381-10.916 24.381-24.381s-10.916-24.381-24.381-24.381v0h-73.143c-134.652 0-243.81-109.157-243.81-243.81s109.157-243.81 243.81-243.81v0h73.143c13.465 0 24.381-10.916 24.381-24.381s-10.916-24.381-24.381-24.381v0zM707.048 423.619h-390.095c-13.465 0-24.381 10.916-24.381 24.381s10.916 24.381 24.381 24.381v0h390.095c13.465 0 24.381-10.916 24.381-24.381s-10.916-24.381-24.381-24.381v0z" />
<glyph unicode="&#xe909;" glyph-name="premium-carousel" d="M134.737 313.263c-74.413 0-134.737 60.324-134.737 134.737s60.324 134.737 134.737 134.737c74.413 0 134.737-60.324 134.737-134.737v0c0-74.413-60.324-134.737-134.737-134.737v0zM134.737 528.842c-44.648 0-80.842-36.194-80.842-80.842s36.194-80.842 80.842-80.842c44.648 0 80.842 36.194 80.842 80.842v0c0 44.648-36.194 80.842-80.842 80.842v0zM889.263 313.263c-74.413 0-134.737 60.324-134.737 134.737s60.324 134.737 134.737 134.737c74.413 0 134.737-60.324 134.737-134.737v0c0-74.413-60.324-134.737-134.737-134.737v0zM889.263 528.842c-44.648 0-80.842-36.194-80.842-80.842s36.194-80.842 80.842-80.842c44.648 0 80.842 36.194 80.842 80.842v0c0 44.648-36.194 80.842-80.842 80.842v0zM512 313.263c-74.413 0-134.737 60.324-134.737 134.737s60.324 134.737 134.737 134.737c74.413 0 134.737-60.324 134.737-134.737v0c0-74.413-60.324-134.737-134.737-134.737v0zM512 528.842c-44.648 0-80.842-36.194-80.842-80.842s36.194-80.842 80.842-80.842c44.648 0 80.842 36.194 80.842 80.842v0c0 44.648-36.194 80.842-80.842 80.842v0z" />
<glyph unicode="&#xe90a;" glyph-name="premium-charts" d="M443.733 494.324v-4.876c0.115 0.733 0.18 1.578 0.18 2.438s-0.066 1.705-0.192 2.53l0.012-0.092zM394.971 465.067v0zM658.286 960h-292.571c-256.488 0-365.714-109.227-365.714-365.714v-292.571c0-256.488 109.227-365.714 365.714-365.714h292.571c256.488 0 365.714 109.227 365.714 365.714v292.571c0 256.488-109.227 365.714-365.714 365.714zM975.238 301.714c0-231.131-85.821-316.952-316.952-316.952h-292.571c-231.131 0-316.952 85.821-316.952 316.952v292.571c0 231.131 85.821 316.952 316.952 316.952h292.571c231.131 0 316.952-85.821 316.952-316.952zM733.867 430.933h-105.326v224.792c0 0 0 0.001 0 0.001 0 43.994-35.526 79.691-79.456 79.968h-74.144c-44.055-0.275-79.695-35.915-79.969-79.943v-141.923h-102.4c-44.055-0.275-79.695-35.915-79.969-79.943v-249.687c0-13.465 10.916-24.381 24.381-24.381v0h552.472c13.465 0 24.381 10.916 24.381 24.381v0 167.253c-0.812 43.737-36.192 78.945-79.918 79.481h-0.051zM259.413 433.859c0 0.018 0 0.040 0 0.061 0 17.235 13.972 31.208 31.208 31.208 0.686 0 1.367-0.022 2.043-0.066l-0.092 0.005h104.838v-256.488h-137.996zM579.779 209.067h-136.046v446.659c0 17.235 13.972 31.208 31.208 31.208v0h74.118c0.15 0.003 0.326 0.004 0.503 0.004 16.697 0 30.232-13.535 30.232-30.232 0-0.344-0.006-0.688-0.017-1.029l0.001 0.050zM765.074 209.067h-136.046v173.105h104.838c17.126-0.27 30.938-14.082 31.207-31.182v-0.026z" />
<glyph unicode="&#xe90b;" glyph-name="premium-charts-2" d="M837.149 423.479h-162.82c-122.115 0-183.908 69.149-183.908 205.487v143.693c-0.695 6.197-1.091 13.381-1.091 20.658 0 54.914 22.564 104.559 58.927 140.167l0.034 0.033c43.157 32.368 106.421 34.82 199.111 7.847 123.717-39.228 219.225-134.736 257.689-255.674l0.763-2.778c26.973-92.199 24.521-155.464-8.337-198.621-35.853-37.969-86.537-61.606-142.741-61.606-6.206 0-12.344 0.288-18.403 0.852l0.776-0.058zM640.981 883.985c-1.476 0.101-3.198 0.158-4.934 0.158-15.271 0-29.503-4.446-41.473-12.113l0.308 0.185c-19.126-14.713-28.444-49.042-28.444-102.008v-138.789c0-109.854 42.176-131.923 110.345-131.923h162.82c53.946 0 87.295 9.318 101.517 28.935s15.693 67.678-3.433 133.885c-32.019 99.703-109.116 176.638-206.666 207.807l-2.253 0.622c-26.764 8.942-57.648 14.602-89.694 15.679l-0.543 0.014zM482.084-64c-1.14-0.010-2.487-0.015-3.835-0.015-266.248 0-482.084 215.836-482.084 482.084 0 232.896 165.149 427.219 384.726 472.249l3.109 0.533c2.212 0.472 4.752 0.743 7.356 0.743 20.318 0 36.789-16.471 36.789-36.789 0-17.714-12.52-32.504-29.193-36.004l-0.24-0.042c-187.913-39.478-326.977-203.849-326.977-400.7 0-225.891 183.121-409.011 409.011-409.011 197.436 0 362.199 139.892 400.575 325.964l0.456 2.645c3.542 16.913 18.332 29.433 36.046 29.433 20.318 0 36.789-16.471 36.789-36.789 0-2.604-0.271-5.145-0.785-7.596l0.042 0.24c-45.687-222.077-239.477-386.735-471.762-386.943h-0.023z" />
<glyph unicode="&#xe90c;" glyph-name="premium-contact-form" d="M755.81 9.143h-487.619c-170.667 0-268.19 95.086-268.19 268.19v341.333c0 173.105 97.524 268.19 268.19 268.19h487.619c173.105 0 268.19-97.524 268.19-268.19v-341.333c0-173.105-95.086-268.19-268.19-268.19zM268.19 838.095c-145.798 0-219.429-73.143-219.429-219.429v-341.333c0-146.286 73.63-219.429 219.429-219.429h487.619c146.286 0 219.429 73.63 219.429 219.429v341.333c0 146.286-73.63 219.429-219.429 219.429zM511.512 418.255c-0.721-0.011-1.573-0.017-2.426-0.017-39.245 0-75.406 13.209-104.278 35.424l0.403-0.298-152.137 121.905c-6.599 4.433-10.884 11.868-10.884 20.304 0 13.465 10.916 24.381 24.381 24.381 6.485 0 12.379-2.532 16.747-6.662l-0.011 0.011 152.137-121.905c21.184-15.307 47.676-24.484 76.312-24.484s55.129 9.176 76.698 24.749l-0.386-0.265 152.625 121.905c4.356 4.119 10.25 6.651 16.736 6.651 13.465 0 24.381-10.916 24.381-24.381 0-8.436-4.285-15.872-10.797-20.249l-0.087-0.055-152.625-121.905c-28.471-21.921-64.635-35.133-103.885-35.133-1.021 0-2.040 0.009-3.057 0.027l0.153-0.002z" />
<glyph unicode="&#xe90d;" glyph-name="premium-content-switcher" d="M609.524 33.524h-195.048c-228.909 0-414.476 185.567-414.476 414.476s185.567 414.476 414.476 414.476v0h195.048c228.909 0 414.476-185.567 414.476-414.476s-185.567-414.476-414.476-414.476v0zM414.476 813.714c-201.978 0-365.714-163.736-365.714-365.714s163.736-365.714 365.714-365.714v0h195.048c201.978 0 365.714 163.736 365.714 365.714s-163.736 365.714-365.714 365.714v0zM609.524 228.571c-121.187 0-219.429 98.242-219.429 219.429s98.242 219.429 219.429 219.429c121.187 0 219.429-98.242 219.429-219.429v0c-0.277-121.076-98.353-219.152-219.402-219.429h-0.027zM609.524 618.667c-94.257 0-170.667-76.41-170.667-170.667s76.41-170.667 170.667-170.667c94.257 0 170.667 76.41 170.667 170.667v0c0 94.257-76.41 170.667-170.667 170.667v0z" />
<glyph unicode="&#xe90e;" glyph-name="premium-countdown" d="M731.429 884.907v48.762c0 13.465-10.916 24.381-24.381 24.381s-24.381-10.916-24.381-24.381v0-48.762h-341.333v48.762c0 13.465-10.916 24.381-24.381 24.381s-24.381-10.916-24.381-24.381v0-48.762c-175.055-16.579-243.81-108.739-243.81-322.316v-301.349c0-206.263 51.688-325.242 316.952-325.242h292.571c265.265 0 316.952 118.979 316.952 325.242v301.349c0 214.065-68.754 306.225-243.81 322.316zM658.286-15.238h-292.571c-177.493 0-241.371 54.126-260.389 166.278h813.349c-19.017-112.152-82.895-166.278-260.389-166.278zM926.476 261.242c0-21.943 0-42.423 0-61.44h-828.952c0 19.017 0 39.497 0 61.44v301.349c0 208.213 68.754 261.851 195.048 273.554v-48.762c0-13.465 10.916-24.381 24.381-24.381s24.381 10.916 24.381 24.381v0 48.762h341.333v-48.762c0-13.465 10.916-24.381 24.381-24.381s24.381 10.916 24.381 24.381v0 48.762c126.781-12.19 195.048-65.341 195.048-273.554zM565.638 466.53c19.645-5.508 36.261-16.438 48.644-31.065l0.118-0.143c12.101-14.763 19.453-33.825 19.505-54.602v-0.011c0.010-0.514 0.016-1.12 0.016-1.727 0-14.417-3.242-28.078-9.037-40.291l0.244 0.571c-5.587-12.736-13.883-23.378-24.212-31.566l-0.169-0.129c-10.525-8.885-23.071-15.752-36.822-19.809l-0.724-0.183c-14.577-4.739-31.35-7.471-48.762-7.471s-34.185 2.732-49.915 7.791l1.153-0.32c-14.449 4.37-26.974 11.219-37.723 20.135l0.176-0.142c-10.203 8.572-18.431 19.14-24.142 31.138l-0.239 0.558c-5.551 11.643-8.793 25.303-8.793 39.72 0 0.607 0.006 1.213 0.017 1.818l-0.001-0.091c-0.030 0.854-0.047 1.857-0.047 2.864 0 19.494 6.426 37.486 17.276 51.975l-0.162-0.226c12.501 14.77 29.117 25.7 48.075 31.042l0.687 0.165c-16.913 5.933-30.912 16.626-40.788 30.466l-0.172 0.254c-8.575 13.32-13.67 29.585-13.67 47.041 0 0.605 0.006 1.209 0.018 1.811l-0.001-0.090c0.050 13.248 2.918 25.814 8.034 37.146l-0.232-0.575c5.356 11.547 12.762 21.293 21.837 29.167l0.106 0.090c9.493 8.271 20.674 14.898 32.924 19.28l0.722 0.225c13.038 4.33 28.048 6.829 43.642 6.829s30.604-2.498 44.652-7.116l-1.010 0.287c12.971-4.606 24.153-11.234 33.77-19.611l-0.124 0.106c17.983-16.545 29.211-40.191 29.211-66.46 0-17.648-5.067-34.112-13.827-48.016l0.22 0.373c-9.698-14.382-23.591-25.282-39.912-31.036l-0.56-0.172zM512.975 320.244c0.433-0.007 0.944-0.011 1.457-0.011 10.106 0 19.835 1.609 28.947 4.586l-0.659-0.186c8.51 3.018 15.819 7.502 21.985 13.204l-0.042-0.038c5.76 5.517 10.381 12.171 13.51 19.607l0.144 0.385c2.78 7.424 4.39 16.003 4.39 24.957 0 0.14 0 0.28-0.001 0.42v-0.022c0.009 0.436 0.014 0.95 0.014 1.465 0 10.181-1.975 19.901-5.562 28.797l0.184-0.518c-3.785 7.854-8.87 14.499-15.047 19.933l-0.069 0.059c-6.26 5.307-13.774 9.345-22.023 11.608l-0.407 0.095c-8.005 2.475-17.208 3.901-26.744 3.901-0.026 0-0.053 0-0.079 0h0.004c-9.575-0.050-18.798-1.472-27.509-4.078l0.69 0.177c-8.656-2.358-16.171-6.396-22.515-11.773l0.084 0.070c-6.235-5.385-11.197-12.066-14.492-19.64l-0.137-0.353c-3.714-8.185-5.878-17.748-5.878-27.817 0-0.678 0.010-1.354 0.029-2.027l-0.002 0.099c0.118-9.147 1.897-17.845 5.048-25.852l-0.172 0.496c3.071-7.901 7.725-14.593 13.612-19.955l0.042-0.037c6.002-5.88 13.357-10.402 21.553-13.057l0.39-0.109c8.618-3.546 18.601-5.828 29.051-6.331l0.206-0.008zM512.975 603.55c-9.471-0.026-18.518-1.813-26.84-5.050l0.508 0.174c-7.402-2.878-13.731-7.014-19.027-12.2l0.010 0.009c-4.758-5.042-8.564-11.043-11.092-17.674l-0.123-0.368c-2.447-6.524-3.874-14.062-3.901-21.931v-0.012c0.159-8.049 1.395-15.748 3.57-23.041l-0.156 0.611c2.465-7.331 6.121-13.66 10.79-19.092l-0.063 0.075c4.837-5.992 11.076-10.664 18.228-13.546l0.301-0.107c7.503-3.113 16.217-4.92 25.353-4.92 0.859 0 1.714 0.016 2.564 0.048l-0.123-0.004c0.831-0.038 1.806-0.059 2.786-0.059 9.019 0 17.615 1.814 25.442 5.097l-0.434-0.161c7.573 3.077 13.949 7.731 18.962 13.587l0.056 0.066c4.629 5.285 8.159 11.657 10.156 18.673l0.084 0.344c2.168 6.44 3.419 13.857 3.419 21.566 0 0.304-0.002 0.608-0.006 0.911v-0.046c0.015 0.481 0.024 1.046 0.024 1.613 0 7.324-1.442 14.311-4.057 20.694l0.132-0.364c-2.507 7.044-6.335 13.069-11.223 18.049l0.007-0.008c-5.172 5.36-11.54 9.53-18.677 12.084l-0.34 0.106c-6.214 1.995-13.363 3.145-20.781 3.145-1.954 0-3.889-0.080-5.802-0.236l0.251 0.017z" />
<glyph unicode="&#xe90f;" glyph-name="premium-counter" d="M499.81-64c-249.107 0-451.048 201.941-451.048 451.048s201.941 451.048 451.048 451.048c249.107 0 451.048-201.941 451.048-451.048v0c-0.277-248.995-202.052-450.77-451.020-451.048h-0.027zM499.81 789.333c-222.176 0-402.286-180.109-402.286-402.286s180.109-402.286 402.286-402.286c222.176 0 402.286 180.109 402.286 402.286v0c-0.277 222.065-180.221 402.008-402.259 402.286h-0.026zM499.81 374.857c-13.465 0-24.381 10.916-24.381 24.381v0 243.81c0 13.465 10.916 24.381 24.381 24.381s24.381-10.916 24.381-24.381v0-243.81c0-13.465-10.916-24.381-24.381-24.381v0zM646.095 911.238h-292.571c-13.465 0-24.381 10.916-24.381 24.381s10.916 24.381 24.381 24.381v0h292.571c13.465 0 24.381-10.916 24.381-24.381s-10.916-24.381-24.381-24.381v0z" />
<glyph unicode="&#xe910;" glyph-name="premium-divider" d="M999.619 472.381h-243.81c-13.894 122.685-117.090 217.142-242.347 217.142s-228.453-94.456-242.244-216.025l-0.103-1.117h-243.81c-13.465 0-24.381-10.916-24.381-24.381s10.916-24.381 24.381-24.381v0h243.81c13.894-122.685 117.090-217.142 242.347-217.142s228.453 94.456 242.244 216.025l0.103 1.117h243.81c13.465 0 24.381 10.916 24.381 24.381s-10.916 24.381-24.381 24.381v0zM512 252.952c-107.722 0-195.048 87.326-195.048 195.048s87.326 195.048 195.048 195.048c107.722 0 195.048-87.326 195.048-195.048v0c0-107.722-87.326-195.048-195.048-195.048v0z" />
<glyph unicode="&#xe911;" glyph-name="premium-dual-heading" d="M859.185 820.541v-73.63c0-13.465-10.916-24.381-24.381-24.381s-24.381 10.916-24.381 24.381v0 73.63c0 0.001 0 0.001 0 0.002 0 36.454-29.414 66.038-65.802 66.314h-292.597c0.126-0.733 0.198-1.577 0.198-2.438s-0.072-1.705-0.21-2.527l0.012 0.089v-695.345h112.152c13.465 0 24.381-10.916 24.381-24.381v0c0-13.465-10.916-24.381-24.381-24.381v0h-271.116c-13.465 0-24.381 10.916-24.381 24.381v0c0.268 13.356 11.025 24.113 24.356 24.381h112.177v695.345c-0.126 0.733-0.198 1.577-0.198 2.438s0.072 1.705 0.21 2.527l-0.012-0.089h-292.571c-35.345-1.609-63.391-30.655-63.391-66.252 0-0.023 0-0.045 0-0.068v0.003-73.63c0-13.465-10.916-24.381-24.381-24.381s-24.381 10.916-24.381 24.381v0 73.63c0 0.001 0 0.003 0 0.004 0 63.213 50.968 114.522 114.050 115.074h630.056c63.346-0.277 114.59-51.693 114.59-115.077 0 0 0-0.001 0-0.001v0zM1024.488 475.307v-39.010c0-13.465-10.916-24.381-24.381-24.381s-24.381 10.916-24.381 24.381v0 39.010c0 22.083-17.902 39.985-39.985 39.985v0h-199.924v-492.495h79.97c13.465 0 24.381-10.916 24.381-24.381v0c0-13.465-10.916-24.381-24.381-24.381v0h-208.701c-13.465 0-24.381 10.916-24.381 24.381v0c0 13.465 10.916 24.381 24.381 24.381v0h79.97v492.495h-92.648c-13.465 0-24.381 10.916-24.381 24.381s10.916 24.381 24.381 24.381v0h341.333c48.902-0.275 88.472-39.844 88.747-88.72v-0.026z" />
<glyph unicode="&#xe912;" glyph-name="premium-facebook-feed" d="M658.286 960h-292.571c-256.488 0-365.714-109.227-365.714-365.714v-292.571c0-256.488 109.227-365.714 365.714-365.714h292.571c256.488 0 365.714 109.227 365.714 365.714v292.571c0 256.488-109.227 365.714-365.714 365.714zM487.619-15.238v351.086h-97.524v73.143h97.524v185.295c-0.016 0.733-0.025 1.597-0.025 2.463 0 65.98 53.487 119.467 119.467 119.467 0.866 0 1.73-0.009 2.592-0.028l-0.128 0.002h121.905v-97.524h-107.276c-0.599 0.035-1.3 0.054-2.005 0.054-20.467 0-37.059-16.592-37.059-37.059 0-0.705 0.020-1.406 0.059-2.101l-0.004 0.097v-165.79h139.947l-15.604-73.143h-124.343v-355.962zM975.238 301.714c0-231.131-85.821-316.952-316.952-316.952h-24.381v307.2h82.895c18.779 0.13 34.509 13.028 38.949 30.44l0.061 0.28 19.017 91.185v4.876c0.093 1.029 0.146 2.226 0.146 3.435 0 21.889-17.377 39.72-39.089 40.449l-0.067 0.002h-101.912v107.276h107.276c0.599-0.035 1.3-0.054 2.005-0.054 20.467 0 37.059 16.592 37.059 37.059 0 0.705-0.020 1.406-0.059 2.101l0.004-0.097v117.029c0.035 0.599 0.054 1.3 0.054 2.005 0 20.467-16.592 37.059-37.059 37.059-0.705 0-1.406-0.020-2.101-0.059l0.097 0.004h-131.657c-0.437 0.004-0.953 0.006-1.469 0.006-93.449 0-169.204-75.755-169.204-169.204 0-0.517 0.002-1.033 0.007-1.548l-0.001 0.079v-136.533h-58.514c-0.599 0.035-1.3 0.054-2.005 0.054-20.467 0-37.059-16.592-37.059-37.059 0-0.705 0.020-1.406 0.059-2.101l-0.004 0.097v-92.648c-0.035-0.599-0.054-1.3-0.054-2.005 0-20.467 16.592-37.059 37.059-37.059 0.705 0 1.406 0.020 2.101 0.059l-0.097-0.004h58.514v-302.324h-73.143c-231.131 0-316.952 85.821-316.952 316.952v292.571c0 231.131 85.821 316.952 316.952 316.952h292.571c231.131 0 316.952-85.821 316.952-316.952z" />
<glyph unicode="&#xe913;" glyph-name="premium-facebook-reviews" horiz-adv-x="1052" d="M1030.757 558.717c-24.363 31.799-62.353 52.1-105.085 52.1-1.981 0-3.951-0.044-5.91-0.13l0.279 0.010h-207.919c-0.083-0.001-0.182-0.001-0.281-0.001-7.912 0-15.029 3.399-19.972 8.817l-0.019 0.021c-4.104 5.107-6.588 11.668-6.588 18.81 0 1.617 0.127 3.204 0.372 4.752l-0.022-0.171 25.99 164.776c1.365 7.027 2.145 15.109 2.145 23.372 0 55.656-35.414 103.041-84.937 120.85l-0.895 0.281c-12.092 4.104-26.020 6.473-40.502 6.473-42.699 0-80.587-20.593-104.276-52.39l-0.246-0.345-172.573-255.22c-6.757 69.133-48.341 101.36-128.39 101.36h-51.98c-88.885 0-129.949-39.505-129.949-124.751v-509.401c0-85.247 41.064-124.751 129.949-124.751h51.98c71.212 0 111.756 25.47 125.271 79.529l126.83-97.722c30.286-24.34 69.201-39.066 111.556-39.066 1.898 0 3.79 0.030 5.674 0.088l-0.275-0.007h197.523c79.415 1.541 146.241 53.736 169.611 125.543l0.362 1.287 124.751 378.932c5.684 13.822 8.983 29.867 8.983 46.683 0 26.215-8.019 50.558-21.739 70.708l0.28-0.437zM259.898 117.929c0-56.658-17.673-72.772-77.97-72.772h-51.98c-60.296 0-77.97 16.114-77.97 72.772v509.401c0 56.658 17.673 72.772 77.97 72.772h51.98c60.296 0 77.97-16.114 77.97-72.772zM994.372 458.916l-125.791-381.531c-17.198-51.303-64.17-87.894-119.898-89.401l-0.175-0.004h-196.483c-0.884-0.020-1.925-0.032-2.968-0.032-29.89 0-57.549 9.557-80.086 25.781l0.407-0.279-155.939 121.113v426.753l213.117 317.076c14.505 18 36.549 29.419 61.259 29.419 8.188 0 16.083-1.254 23.504-3.58l-0.556 0.15c31.004-10.397 52.945-39.184 52.945-73.096 0-4.29-0.351-8.499-1.026-12.598l0.061 0.446-26.51-166.855c-0.595-3.736-0.934-8.044-0.934-12.431 0-20.233 7.225-38.778 19.236-53.197l-0.109 0.134c14.844-16.267 36.115-26.451 59.766-26.51h207.929c1.341 0.079 2.909 0.124 4.488 0.124 25.708 0 48.622-11.964 63.478-30.627l0.127-0.165c6.966-11.156 11.097-24.705 11.097-39.219 0-11.421-2.558-22.245-7.132-31.929l0.194 0.456z" />
<glyph unicode="&#xe914;" glyph-name="premium-fancy-text" d="M903.276 933.053c0-14.883-12.065-26.947-26.947-26.947v0h-227.975l-229.053-916.211h215.579c14.883 0 26.947-12.065 26.947-26.947s-12.065-26.947-26.947-26.947v0h-500.143c-14.883 0-26.947 12.065-26.947 26.947s12.065 26.947 26.947 26.947v0h229.053l229.053 916.211h-215.579c-14.883 0-26.947 12.065-26.947 26.947s12.065 26.947 26.947 26.947v0h499.065c14.883 0 26.947-12.065 26.947-26.947v0z" />
<glyph unicode="&#xe915;" glyph-name="premium-google-maps" d="M517.851 353.89c-97.488 0-176.518 79.030-176.518 176.518s79.030 176.518 176.518 176.518c97.488 0 176.518-79.030 176.518-176.518v0c0-97.488-79.030-176.518-176.518-176.518v0zM517.851 658.164c-70.558 0-127.756-57.198-127.756-127.756s57.198-127.756 127.756-127.756c70.558 0 127.756 57.198 127.756 127.756v0c-0.276 70.446-57.31 127.48-127.73 127.756h-0.027zM517.851-64c-0.638-0.005-1.393-0.008-2.149-0.008-74.994 0-143.038 29.753-192.973 78.099l0.074-0.072c-141.41 136.046-297.448 352.549-239.421 610.499v0c45.631 193.705 217.004 335.675 421.537 335.675 4.547 0 9.078-0.070 13.592-0.21l-0.66 0.016c3.125 0.081 6.805 0.127 10.496 0.127 204.779 0 376.356-142.152 421.438-333.16l0.584-2.936c58.027-257.95-97.524-473.966-239.909-610.011-49.716-48.264-117.631-78.019-192.495-78.019-0.040 0-0.080 0-0.121 0h0.006zM133.12 613.79c-53.638-235.52 93.135-438.857 225.768-564.663 40.967-39.853 96.973-64.428 158.72-64.428s117.753 24.576 158.772 64.479l-0.052-0.051c132.632 127.269 279.893 328.655 226.255 564.175-39.197 171.85-190.723 298.157-371.748 298.157-4.566 0-9.113-0.080-13.64-0.24l0.657 0.018c-4.019 0.152-8.739 0.239-13.479 0.239-180.762 0-332.072-126.1-370.761-295.132l-0.492-2.555z" />
<glyph unicode="&#xe916;" glyph-name="premium-google-reviews" horiz-adv-x="1004" d="M512-64c-1.461-0.015-3.186-0.024-4.913-0.024-197.085 0-367.63 113.628-449.698 278.946l-1.312 2.922c-34.816 66.933-55.479 146.064-56.075 229.965l-0.001 0.191c0.597 84.092 21.26 163.223 57.428 233.024l-1.352-2.868c83.38 168.24 253.926 281.868 451.011 281.868 1.727 0 3.453-0.009 5.176-0.026l-0.263 0.002c0.874 0.005 1.909 0.008 2.944 0.008 129.979 0 248.646-48.434 338.937-128.239l-0.548 0.475c5.555-4.421 9.229-11 9.748-18.448l0.005-0.081c0.005-0.185 0.008-0.404 0.008-0.623 0-6.822-2.802-12.99-7.318-17.415l-0.004-0.004-134.095-135.558c-4.337-4.031-10.169-6.505-16.579-6.505s-12.242 2.474-16.594 6.518l0.015-0.014c-44.787 40.87-104.637 65.904-170.335 65.904-2.174 0-4.342-0.027-6.503-0.082l0.32 0.006c-108.686-0.3-202.029-65.677-243.14-159.207l-0.669-1.708c-1.275-2.893-3.091-5.335-5.339-7.293l-0.025-0.021c-0.304-6.644-2.073-12.811-4.989-18.273l0.112 0.231c-8.782-25.884-13.942-55.704-14.14-86.701v-0.095c-0.016-1.117-0.025-2.436-0.025-3.757 0-30.697 4.824-60.267 13.755-87.994l-0.565 2.029c34.9-109.762 135.795-187.942 254.992-188.221h0.033c3.164-0.137 6.875-0.215 10.605-0.215 54.213 0 104.577 16.475 146.361 44.691l-0.928-0.59c38.446 27.088 67.211 65.638 81.504 110.636l0.416 1.516h-237.958c-13.465 0-24.381 10.916-24.381 24.381v0 180.419c0 13.465 10.916 24.381 24.381 24.381v0h458.362c12.015-0.088 21.957-8.855 23.874-20.338l0.020-0.142c6.136-30.304 9.845-65.305 10.237-101.102l0.003-0.323c0.217-5.485 0.341-11.924 0.341-18.392 0-141.815-59.411-269.755-154.702-360.286l-0.214-0.202c-85.772-76.684-199.608-123.555-324.392-123.555-4.757 0-9.498 0.068-14.223 0.203l0.694-0.016zM512 911.238c-1.431 0.016-3.122 0.026-4.815 0.026-177.966 0-331.962-102.625-406.038-251.923l-1.185-2.64c-32.249-60.551-51.188-132.415-51.188-208.701s18.939-148.15 52.371-211.145l-1.183 2.444c75.261-151.938 229.258-254.563 407.223-254.563 1.693 0 3.384 0.009 5.072 0.028l-0.257-0.002c4.465-0.162 9.71-0.254 14.977-0.254 112.267 0 214.753 41.876 292.69 110.861l-0.467-0.405c85.587 82.296 138.756 197.768 138.756 325.658 0 5.513-0.099 11.002-0.295 16.467l0.023-0.792c-0.124 25.926-2.424 51.224-6.729 75.833l0.39-2.691h-414.964v-131.657h243.81c0.051 0 0.111 0.001 0.172 0.001 7.149 0 13.549-3.205 17.843-8.257l0.028-0.033c4.018-4.265 6.486-10.028 6.486-16.367 0-0.934-0.054-1.855-0.158-2.76l0.010 0.111c-11.817-71.24-51.57-131.466-107.399-170.108l-0.853-0.558c-48.583-33.691-108.79-53.822-173.699-53.822-3.735 0-7.454 0.067-11.157 0.199l0.536-0.015c-140.741 0.297-259.886 92.42-300.727 219.626l-0.621 2.24c-9.907 30.354-15.62 65.285-15.62 101.551 0 1.156 0.006 2.311 0.017 3.464l-0.001-0.177c-0.013 1.073-0.020 2.34-0.020 3.609 0 36.358 5.895 71.339 16.782 104.040l-0.671-2.324c1.541 3.324 2.882 7.229 3.82 11.289l0.081 0.414c1.648 6.848 4.337 12.874 7.93 18.245l-0.128-0.203c50.21 110.958 159.953 186.763 287.4 186.763 0.618 0 1.236-0.002 1.853-0.005h-0.095c1.106 0.015 2.411 0.023 3.718 0.023 70.174 0 134.681-24.261 185.592-64.852l-0.602 0.464 101.912 103.375c-77.702 60.841-176.836 97.564-284.547 97.564-2.136 0-4.268-0.014-6.397-0.043l0.323 0.003z" />
<glyph unicode="&#xe917;" glyph-name="premium-heading" d="M1006.592 775.68v-91.648c0-14.138-11.462-25.6-25.6-25.6s-25.6 11.462-25.6 25.6v0 91.648c0.009 0.457 0.015 0.996 0.015 1.536 0 44.395-35.989 80.384-80.384 80.384-0.005 0-0.010 0-0.016 0h-346.111c0.119-0.693 0.186-1.49 0.186-2.304s-0.068-1.611-0.198-2.388l0.012 0.084v-824.832h176.128c14.138 0 25.6-11.462 25.6-25.6s-11.462-25.6-25.6-25.6v0h-403.456c-14.138 0-25.6 11.462-25.6 25.6s11.462 25.6 25.6 25.6v0h176.128v824.832c-0.119 0.693-0.186 1.49-0.186 2.304s0.068 1.611 0.198 2.388l-0.012-0.084h-346.112c-0.004 0-0.009 0-0.015 0-44.395 0-80.384-35.989-80.384-80.384 0-0.54 0.005-1.079 0.016-1.616l-0.001 0.080v-91.648c0-14.138-11.462-25.6-25.6-25.6s-25.6 11.462-25.6 25.6v0 91.648c-0.003 0.305-0.004 0.665-0.004 1.025 0 72.776 58.852 131.806 131.56 132.095h743.452c72.736-0.289 131.588-59.319 131.588-132.095 0-0.36-0.001-0.72-0.004-1.080v0.055z" />
<glyph unicode="&#xe918;" glyph-name="premium-horizontal-scroll" d="M1024 277.333c0.403-1.623 0.635-3.487 0.635-5.404s-0.231-3.781-0.668-5.564l0.033 0.16c-1.806-3.248-3.883-6.049-6.272-8.549l-3.967-3.967-281.031-281.6c-4.994-5.312-12.066-8.62-19.911-8.62s-14.917 3.308-19.898 8.606l-0.013 0.014c-5.312 4.994-8.62 12.066-8.62 19.911s3.308 14.917 8.606 19.898l0.014 0.013 234.382 236.089h-898.844c-15.709 0-28.444 12.735-28.444 28.444s12.735 28.444 28.444 28.444v0h967.111c1.624 0.384 3.488 0.604 5.404 0.604s3.781-0.22 5.57-0.637l-0.165 0.032c3.375-1.487 6.224-3.607 8.509-6.229l0.024-0.029c2.375-2.484 4.451-5.285 6.151-8.326l0.106-0.207c1.834-3.255 2.914-7.146 2.914-11.289 0-0.632-0.025-1.258-0.074-1.878l0.005 0.082zM1024 617.529c0-15.709-12.735-28.444-28.444-28.444v0h-967.111c-1.624-0.384-3.488-0.604-5.404-0.604s-3.781 0.22-5.57 0.637l0.165-0.032c-3.375 1.487-6.224 3.607-8.509 6.229l-0.024 0.029c-2.375 2.484-4.451 5.285-6.151 8.326l-0.106 0.207c-1.442 3.181-2.282 6.897-2.282 10.809s0.84 7.628 2.35 10.978l-0.068-0.169c1.806 3.248 3.883 6.049 6.272 8.549l3.967 3.967 280.462 285.013c5.096 5.096 12.135 8.247 19.911 8.247 15.552 0 28.159-12.607 28.159-28.159 0-7.776-3.152-14.815-8.247-19.911v0l-236.658-236.658h898.844c0.002 0 0.004 0 0.006 0 15.709 0 28.444-12.735 28.444-28.444 0-0.2-0.002-0.4-0.006-0.599v0.030z" />
<glyph unicode="&#xe919;" glyph-name="premium-hover-box" d="M673.89 789.333h-133.12c-124.343 0-179.931-55.101-179.931-179.444v-10.728h-10.24c-124.343 0-179.931-55.101-179.931-179.444v-133.12c0-124.343 55.589-179.931 179.931-179.931h132.632c124.343 0 179.931 55.589 179.931 179.931v10.24h10.24c124.343 0 179.931 55.589 179.931 179.931v133.12c0 124.343-55.101 179.444-179.444 179.444zM614.4 286.598c0-97.524-33.158-131.17-131.17-131.17h-132.632c-97.524 0-131.17 33.158-131.17 131.17v133.12c0 97.524 33.158 130.682 131.17 130.682h132.632c97.524 0 131.17-33.158 131.17-130.682zM804.571 476.77c0-97.524-33.158-131.17-131.17-131.17h-10.24v74.118c0.507 5.103 0.796 11.029 0.796 17.024 0 45.594-16.731 87.28-44.389 119.253l0.195-0.231c-7.339 7.216-15.483 13.655-24.274 19.158l-0.595 0.347c-29.389 15.222-64.156 24.148-101.008 24.148-3.748 0-7.475-0.092-11.178-0.275l0.521 0.020h-73.63v10.728c0 97.524 33.158 130.682 131.17 130.682h133.12c97.524 0 130.682-33.158 130.682-130.682zM658.286-64c-9.054 0.079-16.967 4.892-21.392 12.081l-0.063 0.11c-1.965 3.598-3.121 7.881-3.121 12.434s1.156 8.836 3.19 12.572l-0.069-0.138 51.2 85.333c4.395 7.568 12.462 12.575 21.699 12.575 13.812 0 25.009-11.197 25.009-25.009 0-4.576-1.229-8.864-3.374-12.554l0.064 0.119-27.307-44.861c154.029 23.143 270.822 154.414 271.116 313.020v0.031c0 13.465 10.916 24.381 24.381 24.381s24.381-10.916 24.381-24.381v0c0-201.978-163.736-365.714-365.714-365.714v0zM24.381 569.905c-13.465 0-24.381 10.916-24.381 24.381v0c0 201.978 163.736 365.714 365.714 365.714v0c9.054-0.079 16.967-4.892 21.392-12.081l0.063-0.11c1.965-3.598 3.121-7.881 3.121-12.434s-1.156-8.836-3.19-12.572l0.069 0.138-48.762-85.333c-4.506-8.186-13.075-13.64-22.918-13.64-14.4 0-26.074 11.674-26.074 26.074 0 4.557 1.169 8.841 3.224 12.569l-0.068-0.135 27.307 44.861c-154.029-23.143-270.822-154.414-271.116-313.020v-0.031c0-13.465-10.916-24.381-24.381-24.381v0z" />
<glyph unicode="&#xe91a;" glyph-name="premium-icon-box" d="M707.048-64h-390.095c-170.667 0-268.19 95.086-268.19 268.19v487.619c0 170.667 97.524 268.19 268.19 268.19h390.095c173.105 0 268.19-97.524 268.19-268.19v-487.619c0-173.105-95.086-268.19-268.19-268.19zM316.952 911.238c-145.798 0-219.429-73.63-219.429-219.429v-487.619c0-146.286 73.63-219.429 219.429-219.429h390.095c146.286 0 219.429 73.63 219.429 219.429v487.619c0 146.286-73.63 219.429-219.429 219.429zM828.952 594.286h-97.524c-67.326 0-121.905 54.579-121.905 121.905v0 97.524c0 13.465 10.916 24.381 24.381 24.381s24.381-10.916 24.381-24.381v0-97.524c0-40.396 32.747-73.143 73.143-73.143v0h97.524c13.465 0 24.381-10.916 24.381-24.381s-10.916-24.381-24.381-24.381v0zM512 374.857h-195.048c-13.465 0-24.381 10.916-24.381 24.381s10.916 24.381 24.381 24.381v0h195.048c13.465 0 24.381-10.916 24.381-24.381s-10.916-24.381-24.381-24.381v0zM707.048 179.81h-390.095c-13.465 0-24.381 10.916-24.381 24.381s10.916 24.381 24.381 24.381v0h390.095c13.465 0 24.381-10.916 24.381-24.381s-10.916-24.381-24.381-24.381v0z" />
<glyph unicode="&#xe91b;" glyph-name="premium-ihover" horiz-adv-x="1023" d="M724.887-63.513v0c-42.94 0.688-79.075 29.050-91.397 67.999l-0.188 0.69-92.559 289.857c-2.742 8.717-4.322 18.74-4.322 29.133 0 27.599 11.141 52.596 29.172 70.739l-0.005-0.005c17.601 17.452 41.837 28.236 68.592 28.236 10.294 0 20.215-1.596 29.529-4.555l-0.69 0.189 292.293-90.124c41.302-11.916 71-49.379 71-93.777s-29.697-81.861-70.312-93.607l-0.688-0.17-78.432-26.794c-14.803-4.939-26.239-16.375-31.078-30.834l-0.1-0.344-27.281-79.893c-13.261-39.105-49.639-66.746-92.473-66.746-0.373 0-0.746 0.002-1.118 0.006l0.057-0.001zM633.302 374.927c-13.308-0.058-25.347-5.443-34.104-14.131l0.003 0.003c-9.061-8.854-14.68-21.198-14.68-34.854 0-4.942 0.736-9.712 2.104-14.207l-0.090 0.345 90.124-289.857c6.086-20.453 24.72-35.114 46.778-35.114 0.681 0 1.359 0.014 2.034 0.042l-0.097-0.003c0.665-0.032 1.444-0.051 2.228-0.051 21.705 0 40.094 14.194 46.392 33.807l0.096 0.345 26.794 79.406c9.782 29.509 32.463 52.349 61.183 62.152l0.686 0.203 79.406 26.306c19.957 6.393 34.152 24.783 34.152 46.488 0 0.784-0.019 1.563-0.055 2.337l0.004-0.11c0.028 0.621 0.044 1.348 0.044 2.080 0 21.882-14.427 40.394-34.287 46.543l-0.345 0.092-292.293 90.124c-0.962 0.080-2.081 0.126-3.211 0.126-4.601 0-9.025-0.759-13.153-2.16l0.288 0.085zM511.513-63.513c-282.501 0-511.513 229.012-511.513 511.513s229.012 511.513 511.513 511.513c282.329 0 511.235-228.734 511.513-510.999v-0.027c0-13.452-10.905-24.358-24.358-24.358s-24.358 10.905-24.358 24.358v0c-0.277 255.386-207.372 462.31-462.797 462.31-255.596 0-462.797-207.201-462.797-462.797s207.201-462.797 462.797-462.797v0c13.452 0 24.358-10.905 24.358-24.358v0c0-13.452-10.905-24.358-24.358-24.358v0z" />
<glyph unicode="&#xe91c;" glyph-name="premium-image-accordion" d="M609.524-39.619h-195.048c-157.989 0-246.735 29.257-263.802 184.808-2.837 22.274-4.457 48.044-4.457 74.192 0 3.232 0.025 6.458 0.074 9.678l-0.006-0.487v438.857c-0.037 2.575-0.058 5.615-0.058 8.659 0 26.677 1.616 52.976 4.754 78.806l-0.308-3.107c17.067 154.575 105.813 183.832 263.802 183.832h195.048c157.989 0 246.735-29.257 263.802-184.808 2.837-22.274 4.457-48.044 4.457-74.192 0-3.232-0.025-6.458-0.074-9.678l0.006 0.487v-438.857c0.037-2.575 0.058-5.615 0.058-8.659 0-26.677-1.616-52.976-4.754-78.806l0.308 3.107c-17.067-154.575-105.813-183.832-263.802-183.832zM414.476 886.857c-156.526 0-202.85-30.232-215.040-140.922-2.83-21.163-4.446-45.63-4.446-70.474 0-2.824 0.021-5.643 0.062-8.458l-0.005 0.425v-438.857c-0.024-2.072-0.038-4.52-0.038-6.971 0-24.86 1.431-49.386 4.215-73.5l-0.276 2.94c12.678-111.665 59.002-141.897 215.528-141.897h195.048c156.526 0 202.85 30.232 215.040 140.922 2.83 21.163 4.446 45.63 4.446 70.474 0 2.824-0.021 5.643-0.062 8.458l0.005-0.425v438.857c0.024 2.072 0.038 4.52 0.038 6.971 0 24.86-1.431 49.386-4.215 73.5l0.276-2.94c-12.678 111.665-59.002 141.897-215.528 141.897zM24.381 57.905c-13.465 0-24.381 10.916-24.381 24.381v0 731.429c0 13.465 10.916 24.381 24.381 24.381s24.381-10.916 24.381-24.381v0-731.429c0-13.465-10.916-24.381-24.381-24.381v0zM999.619 82.286c-13.465 0-24.381 10.916-24.381 24.381v0 731.429c0 13.465 10.916 24.381 24.381 24.381s24.381-10.916 24.381-24.381v0-731.429c0-13.465-10.916-24.381-24.381-24.381v0z" />
<glyph unicode="&#xe91d;" glyph-name="premium-image-button" d="M365.714 521.143c-67.326 0-121.905 54.579-121.905 121.905s54.579 121.905 121.905 121.905c67.326 0 121.905-54.579 121.905-121.905v0c0-67.326-54.579-121.905-121.905-121.905v0zM365.714 716.19c-40.396 0-73.143-32.747-73.143-73.143s32.747-73.143 73.143-73.143c40.396 0 73.143 32.747 73.143 73.143v0c0 40.396-32.747 73.143-73.143 73.143v0zM999.619 569.905c-13.465 0-24.381-10.916-24.381-24.381v0-137.509l-39.497 34.133c-22.71 19.145-52.297 30.78-84.602 30.78s-61.892-11.635-84.8-30.943l0.198 0.163-202.85-174.080c-14.294-11.499-32.666-18.457-52.663-18.457s-38.369 6.958-52.826 18.585l0.164-0.127-16.579 14.141c-22.978 18.844-52.672 30.267-85.033 30.267-27.11 0-52.347-8.016-73.472-21.806l0.517 0.316-215.040-146.286c-12.83 42.517-20.215 91.378-20.215 141.963 0 5.292 0.081 10.565 0.241 15.819l-0.019-0.769v292.571c0 231.131 85.821 316.952 316.952 316.952h195.048c13.465 0 24.381 10.916 24.381 24.381s-10.916 24.381-24.381 24.381v0h-195.048c-256.488 0-365.714-109.227-365.714-365.714v-292.571c-0.203-5.331-0.318-11.591-0.318-17.879 0-65.314 12.467-127.716 35.151-184.956l-1.187 3.398c1.256-3.049 2.563-5.614 4.046-8.060l-0.145 0.258c50.712-109.714 157.501-158.476 328.168-158.476h292.571c256 0 365.714 109.227 365.714 365.714v243.81c0 13.465-10.916 24.381-24.381 24.381v0zM975.238 301.714c0-231.131-85.821-316.952-316.952-316.952h-292.571c-146.286 0-232.594 33.646-277.455 115.566l222.842 150.187c12.773 7.957 28.279 12.674 44.886 12.674 19.924 0 38.261-6.789 52.826-18.18l-0.189 0.142 16.091-14.141c22.777-18.971 52.345-30.486 84.602-30.486s61.825 11.515 84.816 30.66l-0.214-0.174 202.85 174.080c14.336 11.618 32.8 18.653 52.907 18.653s38.571-7.035 53.064-18.777l-0.158 0.124 72.655-60.952zM988.404 923.429c-17.845 21.066-43.732 34.843-72.861 36.558l-0.282 0.013c-29.176-1.676-54.88-15.269-72.537-35.942l-0.119-0.142-27.307-27.794-149.699-149.211c-11.128-11.497-18.824-26.377-21.398-42.952l-0.057-0.446-10.24-67.779c-0.345-2.408-0.542-5.188-0.542-8.014 0-15.782 6.146-30.129 16.174-40.778l-0.028 0.030c10.331-9.963 24.409-16.101 39.92-16.101 0.366 0 0.731 0.003 1.095 0.010l-0.055-0.001h9.265l67.779 10.24c16.968 2.856 31.794 10.507 43.439 21.493l-0.041-0.038 177.006 177.006c21.441 16.936 35.077 42.934 35.077 72.116 0 28.964-13.433 54.791-34.408 71.591l-0.181 0.14zM776.777 635.733c-4.409-3.349-9.637-5.88-15.317-7.256l-0.287-0.059-67.779-9.752c-1.067-0.584-2.338-0.927-3.689-0.927-4.309 0-7.802 3.493-7.802 7.802 0 1.223 0.282 2.381 0.783 3.411l-0.020-0.046 10.24 68.754c1.082 5.866 3.668 11 7.343 15.149l-0.029-0.033 125.806 125.806c17.475-33.007 43.901-59.276 76.054-76.085l0.99-0.471zM953.783 813.714l-14.141-14.141c-35.446 13.816-63.012 41.223-76.726 75.651l-0.318 0.906 14.629 14.629c9.464 10.998 22.727 18.496 37.733 20.448l0.302 0.032c15.737-2.044 29.273-10.131 38.426-21.816l0.096-0.127c32.183-32.183 24.869-51.688 0-75.581zM37.547 94.476s0 0 0 0c-1.317 1.953-2.328 4.236-2.899 6.688l-0.027 0.138c0.971-2.726 1.958-4.979 3.078-7.152l-0.152 0.325z" />
<glyph unicode="&#xe91e;" glyph-name="premium-image-comparison" d="M1024 594.286v-292.571c0-256.488-109.227-365.714-365.714-365.714h-292.571c-1.925-0.021-4.199-0.033-6.476-0.033-34.2 0-67.776 2.671-100.531 7.817l3.632-0.47c-11.856 1.949-20.79 12.122-20.79 24.381 0 13.636 11.055 24.691 24.691 24.691 1.377 0 2.728-0.113 4.044-0.33l-0.143 0.019c26.43-4.083 56.916-6.415 87.948-6.415 3.367 0 6.727 0.027 10.081 0.082l-0.505-0.006h292.571c231.131 0 316.952 85.821 316.952 316.952v84.358l-72.168 72.655c-13.286 13.101-31.542 21.192-51.688 21.192s-38.402-8.091-51.696-21.2l-243.802-243.802c-11.192-11.119-26.614-17.991-43.642-17.991s-32.45 6.872-43.645 17.994l0.003-0.003c-4.368 4.368-7.069 10.402-7.069 17.067 0 13.33 10.806 24.136 24.136 24.136 6.665 0 12.699-2.702 17.067-7.069v0c2.501-2.279 5.842-3.674 9.509-3.674s7.007 1.395 9.52 3.684l-0.011-0.010 243.81 243.81c21.859 22.19 52.235 35.937 85.821 35.937s63.962-13.748 85.806-35.922l38.049-38.049v138.484c0 16.579 0 32.67 0 48.762-0.003 0.146-0.005 0.319-0.005 0.492 0 11.741 8.299 21.543 19.351 23.862l0.159 0.028c0.313 0.014 0.681 0.022 1.050 0.022 13.056 0 23.762-10.061 24.788-22.853l0.006-0.088c1.463-15.604 1.463-32.67 1.463-50.225zM316.952 521.143c-67.326 0-121.905 54.579-121.905 121.905s54.579 121.905 121.905 121.905c67.326 0 121.905-54.579 121.905-121.905v0c0-67.326-54.579-121.905-121.905-121.905v0zM316.952 716.19c-40.396 0-73.143-32.747-73.143-73.143s32.747-73.143 73.143-73.143c40.396 0 73.143 32.747 73.143 73.143v0c0 40.396-32.747 73.143-73.143 73.143v0zM1016.686 952.686c-4.28 4.553-10.342 7.388-17.067 7.388s-12.786-2.836-17.055-7.376l-0.011-0.012-63.878-63.878c-1.588 2.487-3.533 4.587-5.791 6.296l-0.060 0.043c-62.678 41.453-139.605 66.133-222.297 66.133-11.348 0-22.587-0.465-33.699-1.376l1.459 0.096h-292.571c-256.488 0-365.714-109.227-365.714-365.714v-292.571c0-118.979 22.43-202.362 70.217-261.364l-62.903-62.903c-4.553-4.28-7.388-10.342-7.388-17.067s2.836-12.786 7.376-17.055l0.012-0.011c4.28-4.553 10.342-7.388 17.067-7.388s12.786 2.836 17.055 7.376l0.011 0.012 975.238 975.238c4.553 4.28 7.388 10.342 7.388 17.067s-2.836 12.786-7.376 17.055l-0.012 0.011zM104.838 74.971c-35.871 56.189-57.174 124.696-57.174 198.179 0 10.053 0.399 20.013 1.181 29.865l-0.083-1.301v292.571c0 231.131 85.821 316.952 316.952 316.952h292.571c8.798 0.746 19.039 1.171 29.381 1.171 72.606 0 140.316-20.962 197.407-57.165l-1.508 0.893z" />
<glyph unicode="&#xe91f;" glyph-name="premium-image-hotspots" d="M365.714 521.143c-67.326 0-121.905 54.579-121.905 121.905s54.579 121.905 121.905 121.905c67.326 0 121.905-54.579 121.905-121.905v0c0-67.326-54.579-121.905-121.905-121.905v0zM365.714 716.19c-40.396 0-73.143-32.747-73.143-73.143s32.747-73.143 73.143-73.143c40.396 0 73.143 32.747 73.143 73.143v0c0 40.396-32.747 73.143-73.143 73.143v0zM999.619 569.905c-13.465 0-24.381-10.916-24.381-24.381v0-137.021l-39.010 33.646c-22.817 19.093-52.477 30.689-84.846 30.689s-62.029-11.595-85.054-30.858l0.209 0.17-202.85-174.080c-14.294-11.499-32.666-18.457-52.663-18.457s-38.369 6.958-52.826 18.585l0.164-0.127-16.091 14.629c-23.088 18.816-52.871 30.215-85.316 30.215-27.171 0-52.475-7.994-73.688-21.758l0.527 0.321-215.040-146.286c-12.822 42.504-20.202 91.349-20.202 141.919 0 5.136 0.076 10.254 0.227 15.354l-0.018-0.747v292.571c0 231.131 85.821 316.952 316.952 316.952h195.048c13.465 0 24.381 10.916 24.381 24.381s-10.916 24.381-24.381 24.381v0h-195.048c-256.488 0-365.714-109.227-365.714-365.714v-292.571c-0.203-5.331-0.318-11.591-0.318-17.879 0-65.314 12.467-127.716 35.151-184.956l-1.187 3.398c1.256-3.049 2.563-5.614 4.046-8.060l-0.145 0.258c50.712-109.714 157.501-158.476 328.168-158.476h292.571c256.488 0 365.714 109.227 365.714 365.714v243.81c0 13.465-10.916 24.381-24.381 24.381v0zM975.238 301.714c0-231.131-85.821-316.952-316.952-316.952h-292.571c-146.286 0-232.594 33.646-277.455 115.566l222.842 150.187c12.773 7.957 28.279 12.674 44.886 12.674 19.924 0 38.261-6.789 52.826-18.18l-0.189 0.142 16.091-14.141c22.71-19.145 52.297-30.78 84.602-30.78s61.892 11.635 84.8 30.943l-0.198-0.163 203.337 174.080c14.264 11.582 32.644 18.595 52.663 18.595s38.399-7.013 52.818-18.717l-0.155 0.122 72.655-60.952zM987.429 789.333c0-13.465-10.916-24.381-24.381-24.381v0h-109.714v-109.714c0-13.465-10.916-24.381-24.381-24.381s-24.381 10.916-24.381 24.381v0 109.714h-109.714c-13.465 0-24.381 10.916-24.381 24.381s10.916 24.381 24.381 24.381v0h109.714v109.714c0 13.465 10.916 24.381 24.381 24.381s24.381-10.916 24.381-24.381v0-109.714h109.714c13.465 0 24.381-10.916 24.381-24.381v0zM37.547 94.476s0 0 0 0c-1.317 1.953-2.328 4.236-2.899 6.688l-0.027 0.138c0.971-2.726 1.958-4.979 3.078-7.152l-0.152 0.325z" />
<glyph unicode="&#xe920;" glyph-name="premium-image-layers" d="M588.556 124.709c21.499-5.715 47.078-10.197 73.271-12.546l1.822-0.132c-28.288 2.73-53.854 7.203-78.716 13.449l3.623-0.771zM323.779 744.96c-6.339-18.53-12.19-39.010-17.554-61.928 5.364 22.43 11.215 43.398 17.554 61.928zM989.379 771.779c-38.522 61.928-108.251 102.888-219.429 128.731l-80.945 19.017c-171.642 40.472-276.48 5.364-341.333-113.615-14.141-2.926-29.257-7.314-48.762-13.166l-74.118-27.794c-105.813-34.133-169.691-79.482-201.874-142.385s-30.72-140.922 3.413-246.735l62.415-192.61c48.762-152.625 126.293-224.792 246.735-224.792 51.445 1.537 100.178 11.059 145.682 27.363l-3.298-1.031 77.044 25.356c42.676 12.359 79.898 28.977 114.192 49.919l-2.040-1.158h31.695c139.459 0 220.404 79.97 260.876 253.562l48.762 203.825c24.869 113.615 19.017 194.072-19.017 255.512zM539.307 58.392l-76.556-24.869c-180.419-58.514-268.19-13.166-327.68 167.253l-62.415 195.048c-30.232 92.16-32.183 158.964-6.339 209.676s79.482 85.821 173.592 115.566l76.556 25.356h8.777v-3.901c-6.339-18.53-12.19-39.010-17.554-61.928l-48.762-204.312c-48.762-216.503 20.48-330.606 236.983-381.806l81.432-19.505h8.777c-14.629-5.851-29.745-11.215-46.811-16.579zM959.634 529.92l-48.762-203.825c-38.034-165.303-109.714-227.23-248.198-214.065-28.015 2.481-53.594 6.963-78.383 13.404l3.29-0.726-81.92 19.505c-190.659 45.349-243.81 132.632-200.411 323.291l48.762 204.312c8.891 38.739 21.126 72.736 36.84 104.714l-1.244-2.801c26.886 66.976 91.28 113.407 166.519 113.407 3.517 0 7.011-0.101 10.478-0.302l-0.479 0.022c39.992-0.769 78.379-6.059 115.16-15.379l-3.495 0.751 81.432-19.017c97.524-22.918 157.501-57.051 188.709-107.276 16.921-28.3 26.925-62.425 26.925-98.886 0-2.265-0.039-4.52-0.115-6.766l0.009 0.327c-0.916-39.721-6.375-77.741-15.879-114.126l0.762 3.436z" />
<glyph unicode="&#xe921;" glyph-name="premium-image-scroll" d="M365.714 521.143c-67.326 0-121.905 54.579-121.905 121.905s54.579 121.905 121.905 121.905c67.326 0 121.905-54.579 121.905-121.905v0c0-67.326-54.579-121.905-121.905-121.905v0zM365.714 716.19c-40.396 0-73.143-32.747-73.143-73.143s32.747-73.143 73.143-73.143c40.396 0 73.143 32.747 73.143 73.143v0c0 40.396-32.747 73.143-73.143 73.143v0zM999.619 569.905c-13.465 0-24.381-10.916-24.381-24.381v0-137.021l-39.010 33.646c-22.817 19.093-52.477 30.689-84.846 30.689s-62.029-11.595-85.054-30.858l0.209 0.17-202.85-174.080c-14.294-11.499-32.666-18.457-52.663-18.457s-38.369 6.958-52.826 18.585l0.164-0.127-16.091 14.629c-23.088 18.816-52.871 30.215-85.316 30.215-27.171 0-52.475-7.994-73.688-21.758l0.527 0.321-215.040-146.286c-12.822 42.504-20.202 91.349-20.202 141.919 0 5.136 0.076 10.254 0.227 15.354l-0.018-0.747v292.571c0 231.131 85.821 316.952 316.952 316.952h195.048c13.465 0 24.381 10.916 24.381 24.381s-10.916 24.381-24.381 24.381v0h-195.048c-256.488 0-365.714-109.227-365.714-365.714v-292.571c-0.203-5.331-0.318-11.591-0.318-17.879 0-65.314 12.467-127.716 35.151-184.956l-1.187 3.398c1.256-3.049 2.563-5.614 4.046-8.060l-0.145 0.258c50.712-109.714 157.501-158.476 328.168-158.476h292.571c256.488 0 365.714 109.227 365.714 365.714v243.81c0 13.465-10.916 24.381-24.381 24.381v0zM975.238 301.714c0-231.131-85.821-316.952-316.952-316.952h-292.571c-146.286 0-232.594 33.646-277.455 115.566l222.842 150.187c12.773 7.957 28.279 12.674 44.886 12.674 19.924 0 38.261-6.789 52.826-18.18l-0.189 0.142 16.091-14.141c22.71-19.145 52.297-30.78 84.602-30.78s61.892 11.635 84.8 30.943l-0.198-0.163 203.337 174.080c14.264 11.582 32.644 18.595 52.663 18.595s38.399-7.013 52.818-18.717l-0.155 0.122 72.655-60.952zM919.162 723.505l-97.524-97.524c-4.197-4.506-10.164-7.316-16.787-7.316-0.098 0-0.196 0.001-0.294 0.002h0.015c-1.392-0.329-2.99-0.518-4.632-0.518s-3.24 0.189-4.774 0.546l0.142-0.028c-3.084 1.213-5.695 3.040-7.787 5.347l-0.015 0.017-97.524 97.524c-4.368 4.368-7.069 10.402-7.069 17.067 0 13.33 10.806 24.136 24.136 24.136 6.665 0 12.699-2.702 17.067-7.069v0l56.076-54.126v234.057c0 13.465 10.916 24.381 24.381 24.381s24.381-10.916 24.381-24.381v0-233.57l56.076 55.589c4.368 4.368 10.402 7.069 17.067 7.069 13.33 0 24.136-10.806 24.136-24.136 0-6.665-2.702-12.699-7.069-17.067v0zM37.547 94.476s0 0 0 0c-1.317 1.953-2.328 4.236-2.899 6.688l-0.027 0.138c0.971-2.726 1.958-4.979 3.078-7.152l-0.152 0.325z" />
<glyph unicode="&#xe922;" glyph-name="premium-image-separator" d="M822.613-64h-622.202c-0.15 0-0.327-0.001-0.505-0.001-110.684 0-200.411 89.727-200.411 200.411 0 33.67 8.303 65.401 22.973 93.256l-0.526-1.096 83.87 165.79c19.188 46.102 60.538 79.521 110.38 87.183l0.797 0.101c1.943 0.095 4.221 0.148 6.51 0.148 48.713 0 91.732-24.379 117.522-61.602l0.31-0.474 11.215-13.653c17.778-26.040 47.318-42.911 80.798-42.911 0.052 0 0.103 0 0.155 0h-0.008c32.692 5.397 59.516 26.417 72.891 54.99l0.252 0.598 92.16 166.278c35.596 64.366 84.358 97.524 132.145 97.524s93.135-40.96 121.905-108.251l152.625-356.45c10.76-23.825 17.030-51.654 17.030-80.947 0-110.598-89.369-200.322-199.832-200.896h-0.055zM229.181 433.859h-6.827c-33.34-6.087-60.367-28.435-72.904-58.359l-0.239-0.643-83.87-170.179c-10.235-19.874-16.235-43.37-16.235-68.267 0-83.633 67.7-151.453 151.286-151.649h622.221c0.197-0.001 0.429-0.001 0.662-0.001 83.754 0 151.65 67.896 151.65 151.65 0 21.681-4.55 42.299-12.746 60.952l0.381-0.973-152.625 356.45c-20.48 48.762-48.762 77.531-79.482 79.482s-61.44-24.381-87.284-70.705l-92.16-166.278c-20.938-43.673-62.366-74.576-111.483-80.393l-0.67-0.065c-1.914-0.092-4.157-0.144-6.412-0.144-47.875 0-90.25 23.547-116.175 59.692l-0.292 0.429-10.728 13.653c-16.828 25.336-44.185 42.527-75.682 45.321l-0.387 0.028zM267.703 618.667c-94.047 0.277-170.179 76.581-170.179 170.666 0 94.257 76.41 170.667 170.667 170.667s170.666-76.41 170.667-170.666v0c0 0 0 0 0-0.001 0-94.257-76.41-170.667-170.667-170.667-0.171 0-0.343 0-0.514 0.001h0.027zM267.703 911.238c-67.116-0.277-121.417-54.749-121.417-121.904 0-67.326 54.579-121.905 121.905-121.905s121.904 54.578 121.905 121.904v0c0 0 0 0.001 0 0.001 0 67.326-54.579 121.905-121.905 121.905-0.171 0-0.343 0-0.514-0.001h0.026z" />
<glyph unicode="&#xe923;" glyph-name="premium-instagram-feed" d="M658.286-64h-292.571c-256.488 0-365.714 109.227-365.714 365.714v292.571c0 256.488 109.227 365.714 365.714 365.714h292.571c256.488 0 365.714-109.227 365.714-365.714v-292.571c0-256.488-109.227-365.714-365.714-365.714zM365.714 911.238c-231.131 0-316.952-85.821-316.952-316.952v-292.571c0-231.131 85.821-316.952 316.952-316.952h292.571c231.131 0 316.952 85.821 316.952 316.952v292.571c0 231.131-85.821 316.952-316.952 316.952zM512 252.952c-107.722 0-195.048 87.326-195.048 195.048s87.326 195.048 195.048 195.048c107.722 0 195.048-87.326 195.048-195.048v0c0-107.722-87.326-195.048-195.048-195.048v0zM512 594.286c-80.791 0-146.286-65.494-146.286-146.286s65.494-146.286 146.286-146.286c80.791 0 146.286 65.494 146.286 146.286v0c0 80.791-65.494 146.286-146.286 146.286v0zM787.505 655.238c-0.001 0-0.002 0-0.003 0-20.296 0-36.781 16.315-37.056 36.545v0.026c0 20.198 16.374 36.571 36.571 36.571v0 0c20.198 0 36.571-16.374 36.571-36.571s-16.374-36.571-36.571-36.571v0z" />
<glyph unicode="&#xe924;" glyph-name="premium-lottie-animations" d="M731.429 618.667c-0.017-6.86-2.81-13.065-7.314-17.554l-0.001-0.001c-4.489-4.504-10.694-7.297-17.551-7.314h-0.003c-84.846 0-118.491-52.663-160.427-133.12l-24.869-48.762c-38.522-74.118-82.408-158.964-204.8-158.964-11.468 2.366-19.968 12.381-19.968 24.381s8.5 22.015 19.807 24.353l0.161 0.028c85.333 0 118.979 52.663 160.914 133.12l24.869 48.762c39.010 74.606 82.895 159.451 204.8 159.451 13.356-0.268 24.113-11.025 24.381-24.356v-0.025zM658.286-64h-292.571c-256.488 0-365.714 109.227-365.714 365.714v292.571c0 256.488 109.227 365.714 365.714 365.714h292.571c256.488 0 365.714-109.227 365.714-365.714v-292.571c0-256.488-109.227-365.714-365.714-365.714zM365.714 911.238c-231.131 0-316.952-85.821-316.952-316.952v-292.571c0-231.131 85.821-316.952 316.952-316.952h292.571c231.131 0 316.952 85.821 316.952 316.952v292.571c0 231.131-85.821 316.952-316.952 316.952z" />
<glyph unicode="&#xe925;" glyph-name="premium-magic-scroll" d="M718.75-62.050c-27.555 1.306-52.831 10.041-74.169 24.23l0.538-0.337-108.739 66.804c-7.089 3.694-15.482 5.861-24.381 5.861s-17.291-2.167-24.679-6.002l0.298 0.141-108.251-64.853c-63.39-37.547-100.45-22.918-117.029-10.728s-41.448 42.91-24.869 114.103l25.844 114.59c0.341 2.322 0.535 5.003 0.535 7.729 0 13.816-4.996 26.465-13.281 36.238l0.067-0.081-90.21 88.747c-22.828 18.017-37.348 45.685-37.348 76.745 0 7.362 0.816 14.534 2.362 21.43l-0.123-0.651c13.959 35.571 47.239 60.647 86.587 62.408l0.209 0.007 116.541 19.505c14.195 4.029 25.902 12.884 33.507 24.64l0.139 0.229 64.366 128.731c28.77 57.539 65.829 65.829 85.333 65.829s56.564-8.29 85.333-65.829l64.366-128.731c7.505-11.899 19.099-20.636 32.77-24.293l0.389-0.088 117.029-19.992c39.345-1.597 72.55-26.272 86.562-60.787l0.234-0.653c1.424-6.245 2.239-13.417 2.239-20.779 0-31.060-14.52-58.728-37.142-76.588l-0.206-0.157-90.697-90.697c-7.951-9.668-12.771-22.171-12.771-35.801 0-2.852 0.211-5.656 0.619-8.395l-0.038 0.31 25.844-112.64c16.091-71.192-8.777-102.4-24.869-114.103-11.606-9.611-26.514-15.606-42.806-16.089l-0.104-0.002zM512 84.236c0.747 0.021 1.626 0.034 2.507 0.034 17.010 0 32.96-4.536 46.707-12.465l-0.453 0.241 109.714-64.853c33.158-19.505 54.126-19.505 62.903-13.166s14.629 26.331 5.851 63.878l-25.844 112.64c-1.041 5.522-1.637 11.875-1.637 18.367 0 27.188 10.447 51.936 27.545 70.45l-0.064-0.070 89.722 89.234c18.53 19.017 26.819 37.547 22.918 48.762s-22.43 23.893-48.762 28.282l-116.541 19.505c-30.289 6.134-55.252 25.015-69.464 50.677l-0.266 0.523-63.39 130.682c-12.19 24.381-27.307 38.522-41.448 38.522s-29.257-14.141-41.448-38.522l-64.366-128.731c-14.673-25.825-39.307-44.552-68.544-51.069l-0.698-0.131-117.029-19.505c-25.844-4.389-43.886-14.629-48.762-27.794s4.389-32.183 22.918-51.2l90.697-90.697c16.997-18.569 27.412-43.41 27.412-70.684 0-6.383-0.57-12.632-1.663-18.7l0.095 0.637-25.844-112.64c-8.777-37.547 0-57.539 5.851-63.878s29.745-6.339 63.39 13.166l108.739 64.853c14.081 8.492 31.064 13.554 49.221 13.653h0.028zM219.429 571.855c-13.465 0-24.381 10.916-24.381 24.381v0 341.333c0 13.465 10.916 24.381 24.381 24.381s24.381-10.916 24.381-24.381v0-341.333c0-13.465-10.916-24.381-24.381-24.381v0zM804.571 571.855c-13.465 0-24.381 10.916-24.381 24.381v0 341.333c0 13.465 10.916 24.381 24.381 24.381s24.381-10.916 24.381-24.381v0-341.333c0-13.465-10.916-24.381-24.381-24.381v0zM512 815.665c-13.465 0-24.381 10.916-24.381 24.381v0 97.524c0 13.465 10.916 24.381 24.381 24.381s24.381-10.916 24.381-24.381v0-97.524c0-13.465-10.916-24.381-24.381-24.381v0z" />
<glyph unicode="&#xe926;" glyph-name="premium-magic-section" horiz-adv-x="1015" d="M556.373-52.297c-25.844 0-66.804 13.166-107.764 79.482l-85.821 138.971c-14.193 18.058-35.582 29.908-59.773 31.199l-0.204 0.009-161.402-8.29c-89.722-4.876-121.417 31.208-132.145 53.15s-19.992 68.754 38.522 137.509l97.524 112.152c9.282 12.944 14.842 29.104 14.842 46.563 0 5.785-0.611 11.428-1.771 16.867l0.094-0.527-48.762 157.501c-6.557 14.452-10.378 31.338-10.378 49.117 0 30.076 10.936 57.599 29.048 78.807l-0.14-0.168c20.528 17.124 47.188 27.52 76.277 27.52 18.523 0 36.061-4.216 51.708-11.739l-0.716 0.31 146.286-48.762c5.819-1.575 12.499-2.48 19.391-2.48 14.828 0 28.677 4.189 40.43 11.448l-0.331-0.191 150.187 108.739c21.838 19.946 51.030 32.165 83.076 32.165 16.443 0 32.135-3.217 46.481-9.056l-0.825 0.297c33.252-22.342 54.84-59.811 54.84-102.323 0-6.047-0.437-11.993-1.281-17.806l0.079 0.663-3.413-184.808c1.595-21.548 11.402-40.537 26.266-54.067l0.065-0.058 121.417-91.672c35.808-21.551 59.392-60.211 59.392-104.379 0-3.423-0.142-6.812-0.419-10.163l0.029 0.439c-12.386-44.911-48.58-78.99-93.814-88.127l-0.784-0.132-157.501-48.762c-20.827-8.415-36.83-25.055-44.206-45.785l-0.167-0.538-37.547-143.848c-22.918-87.284-66.804-106.301-91.185-109.714zM304.762 246.126c40.511-2.096 75.722-23.053 97.25-54.194l0.274-0.419 85.821-138.971c23.406-38.034 48.762-59.002 70.217-56.076s39.497 31.208 48.762 74.606l37.547 143.36c13.267 38.474 43.239 68.126 81.014 80.684l0.906 0.261 157.501 48.762c35.596 10.728 57.539 29.257 61.44 48.762s-11.703 44.861-40.96 66.804l-120.93 91.672c-27.191 22.727-44.689 56.266-45.832 93.919l-0.005 0.191 3.413 184.808c0 38.034-9.265 65.341-27.794 75.093s-48.762 0-77.044-19.992l-151.162-106.789c-19.642-12.934-43.729-20.633-69.615-20.633-12.013 0-23.638 1.658-34.66 4.758l0.9-0.216-142.872 47.299c-10.248 5.25-22.358 8.326-35.185 8.326-15.93 0-30.751-4.744-43.129-12.897l0.295 0.183c-8.749-12.484-13.982-27.991-13.982-44.719 0-12.281 2.82-23.903 7.847-34.254l-0.204 0.467 48.762-157.501c2.628-9.582 4.138-20.583 4.138-31.938 0-29.501-10.194-56.622-27.252-78.031l0.196 0.254-97.524-112.152c-28.77-33.646-40.96-65.341-31.695-83.87s40.96-27.794 85.821-25.844l162.865 8.29zM989.867-64c-6.693 0.098-12.717 2.878-17.063 7.31l-146.29 146.29c-4.553 4.28-7.388 10.342-7.388 17.067s2.836 12.786 7.376 17.055l0.012 0.011c4.419 4.454 10.543 7.212 17.31 7.212s12.891-2.757 17.309-7.21l146.288-146.288c4.31-4.394 6.969-10.42 6.969-17.067s-2.66-12.673-6.973-17.071l0.004 0.004c-4.489-4.504-10.694-7.297-17.551-7.314h-0.003z" />
<glyph unicode="&#xe927;" glyph-name="premium-media-grid" d="M890.88 374.857h-195.048c-90.697 0-133.12 40.472-133.12 126.781v331.581c0 86.309 42.423 126.781 133.12 126.781h195.048c90.697 0 133.12-40.472 133.12-126.781v-331.581c0-86.309-42.423-126.781-133.12-126.781zM695.832 911.238c-64.853 0-84.358-18.042-84.358-78.019v-331.581c0-59.977 19.505-78.019 84.358-78.019h195.048c64.853 0 84.358 18.042 84.358 78.019v331.581c0 59.977-19.505 78.019-84.358 78.019zM890.88-64h-195.048c-90.697 0-133.12 40.472-133.12 126.781v87.771c0 86.309 42.423 126.781 133.12 126.781h195.048c90.697 0 133.12-40.472 133.12-126.781v-87.771c0-86.309-42.423-126.781-133.12-126.781zM695.832 228.571c-64.853 0-84.358-18.042-84.358-78.019v-87.771c0-59.977 19.505-78.019 84.358-78.019h195.048c64.853 0 84.358 18.042 84.358 78.019v87.771c0 59.977-19.505 78.019-84.358 78.019zM330.118-64h-195.048c-92.648 0-135.070 40.472-135.070 126.781v331.581c0 86.309 42.423 126.781 133.12 126.781h195.048c90.697 0 133.12-40.472 133.12-126.781v-331.581c1.95-86.309-40.472-126.781-131.17-126.781zM135.070 472.381c-66.804 0-86.309-18.042-86.309-78.019v-331.581c0-59.977 19.505-78.019 84.358-78.019h195.048c64.853 0 84.358 18.042 84.358 78.019v331.581c0 59.977-19.505 78.019-84.358 78.019zM330.118 618.667h-195.048c-92.648 0-135.070 40.472-135.070 126.781v87.771c0 86.309 42.423 126.781 133.12 126.781h195.048c90.697 0 133.12-40.472 133.12-126.781v-87.771c1.95-86.309-40.472-126.781-131.17-126.781zM135.070 911.238c-66.804 0-86.309-18.042-86.309-78.019v-87.771c0-59.977 19.505-78.019 84.358-78.019h195.048c64.853 0 84.358 18.042 84.358 78.019v87.771c0 59.977-19.505 78.019-84.358 78.019z" />
<glyph unicode="&#xe928;" glyph-name="premium-mega-menu" d="M890.88 496.762h-195.048c-90.697 0-133.12 42.423-133.12 133.12v195.048c0 90.697 42.423 133.12 133.12 133.12h195.048c90.697 1.95 133.12-40.472 133.12-131.17v-195.048c0-92.648-42.423-135.070-133.12-135.070zM695.832 911.238c-63.878 0-84.358-20.48-84.358-84.358v-195.048c0-63.878 20.48-84.358 84.358-84.358h195.048c63.878 0 84.358 20.48 84.358 84.358v195.048c0 63.878-20.48 84.358-84.358 84.358zM332.069 497.25h-198.949c-90.697 0-133.12 38.522-133.12 121.417v220.404c0 82.408 42.423 120.93 133.12 120.93h195.048c90.697 0 133.12-38.522 133.12-120.93v-220.404c0.248-2.878 0.389-6.228 0.389-9.611 0-30.44-11.431-58.21-30.235-79.251l0.101 0.115c-23.884-20.536-55.188-33.039-89.413-33.039-3.541 0-7.050 0.134-10.523 0.397l0.462-0.028zM133.12 911.238c-71.192 0-84.358-24.381-84.358-72.168v-220.404c0-48.762 12.678-72.168 84.358-72.168h195.048c3.574-0.464 7.709-0.729 11.905-0.729 21.339 0 41.077 6.854 57.134 18.48l-0.284-0.196c11.107 12.693 17.881 29.423 17.881 47.734 0 2.422-0.119 4.817-0.35 7.178l0.024-0.299v220.404c0 48.762-13.166 72.168-84.358 72.168zM330.118-64h-195.048c-92.648 0-135.070 42.423-135.070 133.12v195.048c0 90.697 42.423 133.12 133.12 133.12h195.048c90.697 0 133.12-42.423 133.12-133.12v-195.048c1.95-90.697-40.472-133.12-131.17-133.12zM135.070 350.476c-65.829 0-86.309-20.48-86.309-84.358v-195.048c0-65.829 20.48-86.309 84.358-86.309h195.048c63.878 0 84.358 20.48 84.358 84.358v195.048c0 63.878-20.48 84.358-84.358 84.358zM950.857 252.952h-292.571c-13.465 0-24.381 10.916-24.381 24.381s10.916 24.381 24.381 24.381v0h292.571c13.465 0 24.381-10.916 24.381-24.381s-10.916-24.381-24.381-24.381v0zM950.857 57.905h-292.571c-13.465 0-24.381 10.916-24.381 24.381s10.916 24.381 24.381 24.381v0h292.571c13.465 0 24.381-10.916 24.381-24.381s-10.916-24.381-24.381-24.381v0z" />
<glyph unicode="&#xe929;" glyph-name="premium-messenger-chat" d="M204.8-64c-3.664 0.373-6.981 1.595-9.836 3.465l0.084-0.051c-7.298 4.27-12.135 12.047-12.19 20.96v163.36c-110.925 81.758-182.25 211.687-182.857 358.303v0.097c0 263.314 229.669 477.867 512 477.867s512-212.114 512-472.99-229.669-477.867-512-477.867c-3.892-0.112-8.473-0.175-13.068-0.175-46.373 0-91.235 6.473-133.73 18.566l3.438-0.836-151.65-87.284c-3.33-2.144-7.396-3.418-11.76-3.418-0.151 0-0.302 0.002-0.453 0.005h0.023zM512 911.238c-255.512 0-463.238-195.048-463.238-429.105 0.416-134.643 67.236-253.591 169.414-325.864l1.252-0.841c5.892-4.542 9.672-11.574 9.752-19.492v-133.133l124.343 71.192c3.696 2.161 8.138 3.437 12.877 3.437 2.534 0 4.983-0.365 7.298-1.045l-0.183 0.046c37.409-11.889 80.436-18.741 125.063-18.741 4.719 0 9.421 0.077 14.103 0.229l-0.683-0.018c255.512 0 463.238 192.61 463.238 429.105s-207.726 424.229-463.238 424.229zM292.571 340.724c-8.782 0.143-16.463 4.729-20.907 11.603l-0.060 0.099c-2.826 3.929-4.52 8.837-4.52 14.141s1.694 10.212 4.57 14.214l-0.050-0.073 185.295 219.429c4.415 5.547 11.166 9.072 18.74 9.072 4.412 0 8.545-1.196 12.092-3.281l-0.112 0.061 74.606-39.497 161.89 41.448c1.918 0.567 4.122 0.892 6.402 0.892 8.384 0 15.739-4.408 19.872-11.034l0.057-0.099c3.006-3.953 4.815-8.957 4.815-14.385s-1.81-10.432-4.858-14.444l0.043 0.059-185.295-219.429c-4.587-5.31-11.33-8.65-18.852-8.65-4.546 0-8.807 1.22-12.474 3.35l0.119-0.064-64.366 39.010-170.667-41.935zM472.99 433.371c0.148 0.003 0.323 0.005 0.498 0.005 4.504 0 8.711-1.272 12.28-3.477l-0.101 0.058 55.101-33.158 122.88 146.286-97.524-24.869c-2.526-1.043-5.459-1.648-8.533-1.648s-6.007 0.605-8.686 1.703l0.153-0.055-65.829 34.621-124.343-146.286 107.764 26.331z" />
<glyph unicode="&#xe92a;" glyph-name="premium-modal-box" d="M956.709 720.091c4.553-4.28 7.388-10.342 7.388-17.067s-2.836-12.786-7.376-17.055l-0.012-0.011c-4.28-4.553-10.342-7.388-17.067-7.388s-12.786 2.836-17.055 7.376l-0.011 0.012-69.242 69.242-69.242-69.242c-4.28-4.553-10.342-7.388-17.067-7.388s-12.786 2.836-17.055 7.376l-0.011 0.012c-4.553 4.28-7.388 10.342-7.388 17.067s2.836 12.786 7.376 17.055l0.012 0.011 69.242 69.242-69.242 69.242c-4.368 4.368-7.069 10.402-7.069 17.067 0 13.33 10.806 24.136 24.136 24.136 6.665 0 12.699-2.702 17.067-7.069v0l69.242-69.242 69.242 69.242c4.368 4.368 10.402 7.069 17.067 7.069 13.33 0 24.136-10.806 24.136-24.136 0-6.665-2.702-12.699-7.069-17.067v0l-69.242-69.242zM268.19 350.476c-13.465 0-24.381 10.916-24.381 24.381v0 146.286c0 13.465 10.916 24.381 24.381 24.381s24.381-10.916 24.381-24.381v0-146.286c0-13.465-10.916-24.381-24.381-24.381v0zM512 350.476c-13.465 0-24.381 10.916-24.381 24.381v0 146.286c0 13.465 10.916 24.381 24.381 24.381s24.381-10.916 24.381-24.381v0-146.286c0-13.465-10.916-24.381-24.381-24.381v0zM755.81 350.476c-13.465 0-24.381 10.916-24.381 24.381v0 146.286c0 13.465 10.916 24.381 24.381 24.381s24.381-10.916 24.381-24.381v0-146.286c0-13.465-10.916-24.381-24.381-24.381v0zM658.286-64h-292.571c-256.488 0-365.714 109.227-365.714 365.714v292.571c0 256.488 109.227 365.714 365.714 365.714h195.048c13.465 0 24.381-10.916 24.381-24.381s-10.916-24.381-24.381-24.381v0h-195.048c-231.131 0-316.952-85.821-316.952-316.952v-292.571c0-231.131 85.821-316.952 316.952-316.952h292.571c231.131 0 316.952 85.821 316.952 316.952v195.048c0 13.465 10.916 24.381 24.381 24.381s24.381-10.916 24.381-24.381v0-195.048c0-256.488-109.227-365.714-365.714-365.714z" />
<glyph unicode="&#xe92b;" glyph-name="premium-multi-scroll" horiz-adv-x="1023" d="M446.787 713.701c-4.731-5.032-11.431-8.166-18.863-8.166s-14.132 3.134-18.851 8.153l-0.013 0.013-154.678 154.139v-904.893c0-14.883-12.065-26.947-26.947-26.947s-26.947 12.065-26.947 26.947v0 904.893l-154.678-154.139c-4.828-4.828-11.497-7.813-18.863-7.813-14.733 0-26.677 11.943-26.677 26.677 0 7.367 2.986 14.036 7.813 18.863l196.716 196.716c1.134 1.402 2.371 2.639 3.726 3.736l0.047 0.037c1.866 3.077 4.007 5.732 6.453 8.070l0.015 0.014c3.013 1.366 6.534 2.162 10.24 2.162s7.227-0.796 10.4-2.226l-0.16 0.064c3.077-1.711 5.731-3.678 8.099-5.942l-0.015 0.014c1.402-1.134 2.639-2.371 3.736-3.726l0.037-0.047 199.411-198.872c5.032-4.731 8.166-11.431 8.166-18.863s-3.134-14.132-8.153-18.851l-0.013-0.013zM1014.838 144.573l-200.488-200.488c-1.56-3.232-3.746-5.935-6.42-8.048l-0.048-0.036c-3.013-1.366-6.534-2.162-10.24-2.162s-7.227 0.796-10.4 2.226l0.16-0.064c-3.198 1.409-5.896 3.417-8.061 5.901l-0.023 0.027-3.773 3.773-199.411 198.872c-4.828 4.828-7.813 11.497-7.813 18.863 0 14.733 11.943 26.677 26.677 26.677 7.367 0 14.036-2.986 18.863-7.813v0l154.678-154.139v904.893c0 14.883 12.065 26.947 26.947 26.947s26.947-12.065 26.947-26.947v0-904.893l154.678 154.139c4.828 4.828 11.497 7.813 18.863 7.813 14.733 0 26.677-11.943 26.677-26.677 0-7.367-2.986-14.036-7.813-18.863v0z" />
<glyph unicode="&#xe92c;" glyph-name="premium-preview-window" horiz-adv-x="1021" d="M510.541-62.541c-32.171 0.724-60.403 16.962-77.589 41.503l-0.208 0.313-72.934 97.246c-5.363 4.063-12.091 6.586-19.399 6.806l-0.051 0.001h-24.311c-200.327 0-316.049 52.999-316.049 317.508v243.115c0 206.648 109.402 314.591 316.049 314.591h388.984c206.648 0 316.049-107.943 316.049-314.591v-243.115c0-206.648-109.402-316.049-316.049-316.049h-24.311c-7.891-0.156-14.876-3.903-19.408-9.67l-0.041-0.054-72.934-97.246c-17.666-24.288-45.86-39.992-77.739-40.357l-0.057-0.001zM316.049 909.918c-179.905 0-267.426-86.063-267.426-265.968v-243.115c0-227.556 86.063-268.885 267.426-268.885h24.311c23.696-0.811 44.584-12.166 58.222-29.494l0.126-0.166 72.934-97.246c8.187-13.113 22.539-21.707 38.898-21.707s30.711 8.595 38.786 21.515l0.112 0.192 72.934 97.246c13.408 17.924 34.51 29.456 58.315 29.66h24.344c179.905 0 267.426 87.521 267.426 267.426v243.115c0 181.364-87.521 267.426-267.426 267.426zM753.656 618.18h-486.23c-13.427 0-24.311 10.885-24.311 24.311s10.885 24.311 24.311 24.311v0h486.23c13.427 0 24.311-10.885 24.311-24.311s-10.885-24.311-24.311-24.311v0zM559.164 375.066h-291.738c-13.427 0-24.311 10.885-24.311 24.311s10.885 24.311 24.311 24.311v0h291.738c13.427 0 24.311-10.885 24.311-24.311s-10.885-24.311-24.311-24.311v0z" />
<glyph unicode="&#xe92d;" glyph-name="premium-pricing-table" d="M658.286 960h-292.571c-256.488 0-365.714-109.227-365.714-365.714v-292.571c0-256.488 109.227-365.714 365.714-365.714h292.571c256.488 0 365.714 109.227 365.714 365.714v292.571c0 256.488-109.227 365.714-365.714 365.714zM975.238 301.714c0-231.131-85.821-316.952-316.952-316.952h-292.571c-231.131 0-316.952 85.821-316.952 316.952v292.571c0 231.131 85.821 316.952 316.952 316.952h292.571c231.131 0 316.952-85.821 316.952-316.952zM618.789 436.785l-82.408 28.77v185.295h30.232c46.676-1.604 83.906-39.828 83.906-86.748 0-0.874-0.013-1.746-0.039-2.614l0.003 0.127c0-13.465 10.916-24.381 24.381-24.381v0c13.465 0 24.381 10.916 24.381 24.381v0c0.014 0.735 0.022 1.601 0.022 2.469 0 73.846-59.048 133.9-132.504 135.524l-0.151 0.003h-30.232v40.96c0 13.465-10.916 24.381-24.381 24.381s-24.381-10.916-24.381-24.381v0-40.96h-43.398c-66.007-1.359-118.995-55.188-118.995-121.393 0-0.694 0.006-1.387 0.017-2.079l-0.001 0.104c-0.404-3.521-0.635-7.602-0.635-11.736 0-50.404 34.294-92.798 80.821-105.122l0.759-0.171 81.432-28.282v-185.783h-29.745c-46.676 1.604-83.906 39.828-83.906 86.748 0 0.874 0.013 1.746 0.039 2.614l-0.003-0.127c0 13.465-10.916 24.381-24.381 24.381v0c-13.465 0-24.381-10.916-24.381-24.381v0c-0.014-0.735-0.022-1.601-0.022-2.469 0-73.846 59.048-133.9 132.504-135.524l0.151-0.003h29.745v-40.96c0-13.465 10.916-24.381 24.381-24.381s24.381 10.916 24.381 24.381v0 40.96h43.886c65.954 1.084 119.004 54.804 119.004 120.914 0 0.863-0.009 1.723-0.027 2.582l0.002-0.128c0.441 3.669 0.692 7.917 0.692 12.225 0 50.154-34.108 92.342-80.394 104.633l-0.756 0.171zM423.741 505.051c-28.526 5.918-49.657 30.841-49.657 60.7 0 3.707 0.326 7.338 0.95 10.866l-0.055-0.373c-0.017 0.593-0.027 1.291-0.027 1.99 0 39.279 31.169 71.277 70.122 72.612l0.122 0.003h42.423v-168.716zM581.73 245.15h-45.349v168.716l65.829-22.918c28.526-5.918 49.657-30.841 49.657-60.7 0-3.707-0.326-7.338-0.95-10.866l0.055 0.373c0.017-0.589 0.027-1.281 0.027-1.976 0-39.45-31.441-71.556-70.633-72.628l-0.099-0.002z" />
<glyph unicode="&#xe92e;" glyph-name="premium-progress-bar" d="M999.619 691.81h-292.571c-13.465 0-24.381 10.916-24.381 24.381s10.916 24.381 24.381 24.381v0h292.571c13.465 0 24.381-10.916 24.381-24.381s-10.916-24.381-24.381-24.381v0zM414.476 911.238c-0.454 0.004-0.991 0.006-1.529 0.006-99.129 0-180.986-73.95-193.415-169.693l-0.104-0.98h-195.048c-13.465 0-24.381-10.916-24.381-24.381s10.916-24.381 24.381-24.381v0h195.048c12.538-96.717 94.392-170.661 193.517-170.661 107.722 0 195.048 87.326 195.048 195.048 0 107.184-86.455 194.175-193.435 195.041l-0.082 0.001zM414.476 569.905c-80.791 0-146.286 65.494-146.286 146.286s65.494 146.286 146.286 146.286c80.791 0 146.286-65.494 146.286-146.286v0c0-80.791-65.494-146.286-146.286-146.286v0zM999.619 204.19h-195.048c-12.535 96.72-94.391 170.667-193.518 170.667-107.722 0-195.048-87.326-195.048-195.048s87.326-195.048 195.048-195.048c99.127 0 180.983 73.947 193.414 169.687l0.104 0.979h195.048c13.465 0 24.381 10.916 24.381 24.381s-10.916 24.381-24.381 24.381v0zM609.524 33.524c-80.791 0-146.286 65.494-146.286 146.286s65.494 146.286 146.286 146.286c80.791 0 146.286-65.494 146.286-146.286v0c0-80.791-65.494-146.286-146.286-146.286v0zM316.952 155.429h-292.571c-13.465 0-24.381 10.916-24.381 24.381s10.916 24.381 24.381 24.381v0h292.571c13.465 0 24.381-10.916 24.381-24.381s-10.916-24.381-24.381-24.381v0z" />
<glyph unicode="&#xe92f;" glyph-name="premium-table" d="M1024 618.667c0.126-0.733 0.198-1.577 0.198-2.438s-0.072-1.705-0.21-2.527l0.012 0.089c0.116 1.677 0.182 3.635 0.182 5.608s-0.066 3.931-0.197 5.871l0.014-0.263c0.129-0.952 0.203-2.052 0.203-3.17s-0.074-2.218-0.217-3.296l0.014 0.127zM1024 277.333c0.129-0.952 0.203-2.052 0.203-3.17s-0.074-2.218-0.217-3.296l0.014 0.127c0.116 1.677 0.182 3.635 0.182 5.608s-0.066 3.931-0.197 5.871l0.014-0.263c0.126-0.733 0.198-1.577 0.198-2.438s-0.072-1.705-0.21-2.527l0.012 0.089zM1024 613.303v0c0.116 1.677 0.182 3.635 0.182 5.608s-0.066 3.931-0.197 5.871l0.014-0.263c-7.802 224.792-109.714 326.705-334.994 334.019h-352.061c-236.008-7.314-336.945-117.516-336.945-364.251v-292.571c0-246.735 100.937-356.937 336.945-365.714h351.086c225.28 7.314 327.192 109.227 334.994 334.019 0.116 1.677 0.182 3.635 0.182 5.608s-0.066 3.931-0.197 5.871l0.014-0.263c0 6.339 0 12.678 0 19.017v292.571c0.975 7.802 0.975 14.141 0.975 20.48zM317.44-15.238c-179.444 12.19-256 88.747-268.678 268.19h268.678zM317.44 300.251h-268.678v292.571h268.678zM317.44 641.585h-268.678c12.678 180.907 89.234 257.463 268.678 269.653zM707.535 908.312c178.956-11.215 255.025-87.771 266.24-266.728h-266.24zM366.202 908.312h292.571v-265.265h-292.571zM366.202 591.36h292.571v-292.571h-292.571zM366.202-18.164v271.116h292.571v-268.19zM707.535-18.164v271.116h267.703c-12.678-178.956-88.747-255.512-267.703-268.19zM975.238 301.714h-267.703v292.571h267.703z" />
<glyph unicode="&#xe930;" glyph-name="premium-tabs" d="M976.989 308.364c0 7.447 0 14.895 0 23.273v279.273c0 244.829-104.262 349.091-349.091 349.091h-278.807c-244.829 0-349.091-104.262-349.091-349.091v-279.273c0-244.829 104.262-349.091 349.091-349.091h303.011c37.982-29.051 86.145-46.549 138.394-46.549 0.437 0 0.874 0.001 1.31 0.004h-0.068c84.198 0.156 157.888 45 198.632 112.073l0.583 1.033c11.427 18.62 20.547 40.193 26.204 63.129l0.327 1.569c4.436 16.164 6.984 34.725 6.984 53.88 0 0.367-0.001 0.734-0.003 1.1v-0.057c-0.031 52.792-17.885 101.409-47.869 140.164l0.393-0.528zM674.909 726.342v186.182c148.015-8.844 222.953-64.698 247.622-189.905h-247.622c0.085 0.559 0.134 1.205 0.134 1.862s-0.049 1.302-0.142 1.933l0.009-0.071zM349.091 912.524h279.273v-186.182c-0.108-0.63-0.169-1.355-0.169-2.095s0.062-1.465 0.18-2.171l-0.011 0.076h-279.273zM302.545 912.524v-190.371h-246.691c24.669 125.207 99.607 181.062 246.691 189.905zM349.091 28.16c-220.625 0-302.545 81.92-302.545 302.545v280.204c0 23.273 0 46.545 2.793 64.698h878.778c0-20.015 2.793-41.425 2.793-64.698v-256l-4.189 2.793c-5.758 4.35-12.295 8.66-19.102 12.552l-0.912 0.48c-4.263 2.621-9.451 5.415-14.791 7.939l-1.034 0.439-8.378 3.724c-10.412 4.738-22.685 8.896-35.422 11.839l-1.349 0.262-12.567 2.327c-12.433 2.664-26.716 4.19-41.356 4.19-0.188 0-0.377 0-0.565-0.001h0.029c-65.353-0.078-124.459-26.762-167.080-69.8l-0.018-0.019c-40.601-41.844-65.631-98.994-65.631-161.99 0-0.323 0.001-0.646 0.002-0.969v0.050c0.045-44.379 12.504-85.839 34.092-121.105l-0.579 1.018c4.189-6.516 8.844-13.498 13.498-19.549zM971.869 124.509c-4.819-19.916-12.181-37.456-21.877-53.423l0.466 0.826c-33.247-53.947-92.002-89.367-159.030-89.367-0.054 0-0.109 0-0.163 0h0.008c-0.41-0.003-0.895-0.005-1.38-0.005-43.916 0-84.133 15.838-115.25 42.115l0.266-0.219h-2.327l-3.724 2.793c-0.851 1.318-1.94 2.408-3.216 3.233l-0.042 0.025c-13.057 11.287-24.054 24.508-32.654 39.296l-0.394 0.733c-17.58 27.9-28.011 61.838-28.011 98.212 0 102.825 83.356 186.182 186.182 186.182 0.193 0 0.386 0 0.579-0.001h-0.030c0.422 0.004 0.921 0.006 1.42 0.006 52.926 0 100.589-22.535 133.918-58.533l0.109-0.119c1.011-1.637 2.249-3.023 3.691-4.164l0.033-0.025 5.12-6.516c26.072-31.442 41.891-72.204 41.891-116.661 0-0.059 0-0.118 0-0.177v0.009c0.001-0.221 0.002-0.482 0.002-0.743 0-15.13-2.039-29.783-5.858-43.7l0.271 1.156zM892.742 169.658c0-12.853-10.42-23.273-23.273-23.273v0h-54.924v-56.785c0-12.853-10.42-23.273-23.273-23.273s-23.273 10.42-23.273 23.273v0 55.855h-54.924c-12.853 0-23.273 10.42-23.273 23.273s10.42 23.273 23.273 23.273v0h54.924v53.993c0 12.853 10.42 23.273 23.273 23.273s23.273-10.42 23.273-23.273v0-53.993h54.924c0.006 0 0.012 0 0.019 0 12.526 0 22.74-9.895 23.253-22.295l0.002-0.046z" />
<glyph unicode="&#xe931;" glyph-name="premium-team-members" d="M503.223 477.257h-14.141c-129.313 4.068-232.594 109.871-232.594 239.797 0 132.498 107.411 239.909 239.909 239.909s239.909-107.411 239.909-239.909c0-129.926-103.281-235.729-232.221-239.788l-0.373-0.009zM494.933 911.238c-1.088 0.022-2.371 0.035-3.657 0.035-106.394 0-192.644-86.25-192.644-192.644 0-105.109 84.177-190.556 188.795-192.607l0.192-0.003c2.413 0.254 5.212 0.398 8.046 0.398s5.633-0.145 8.392-0.427l-0.346 0.029c103.96 2.456 187.296 87.313 187.296 191.634 0 105.864-85.82 191.685-191.685 191.685-1.543 0-3.082-0.018-4.616-0.055l0.228 0.004zM503.223-54.248c-2.847-0.062-6.202-0.098-9.565-0.098-91.889 0-177.574 26.559-249.799 72.418l1.901-1.128c-56.592 33.787-94.604 93.584-97.51 162.461l-0.014 0.403c2.67 69.632 40.735 129.816 96.621 163.338l0.903 0.502c73.551 44.56 162.427 70.93 257.463 70.93s183.912-26.37 259.712-72.192l-2.249 1.262c56.592-33.787 94.604-93.584 97.51-162.461l0.014-0.403c-2.67-69.632-40.735-129.816-96.621-163.338l-0.903-0.502c-70.324-44.732-156.009-71.29-247.898-71.29-3.363 0-6.718 0.036-10.065 0.106l0.499-0.008zM272.579 303.177c-44.037-25.096-74.064-70.376-77.508-122.912l-0.024-0.456c3.62-52.667 33.626-97.599 76.776-121.999l0.755-0.393c66.044-39.322 145.629-62.565 230.644-62.565s164.601 23.244 232.749 63.723l-2.105-1.158c44.037 25.096 74.064 70.376 77.508 122.912l0.024 0.456c-3.712 52.638-33.686 97.534-76.778 121.999l-0.753 0.394c-66.104 39.086-145.677 62.18-230.644 62.18s-164.541-23.095-232.785-63.349l2.142 1.169z" />
<glyph unicode="&#xe932;" glyph-name="premium-testimonials" d="M1024 533.821c0 235.032-204.312 426.179-454.949 426.179s-454.949-191.147-454.949-426.179c-0.237-3.789-0.372-8.218-0.372-12.678s0.135-8.889 0.402-13.282l-0.029 0.603c-69.852-48.162-115.051-127.735-115.051-217.864 0-86.125 41.272-162.61 105.117-210.757l0.67-0.484-7.314-81.92c-0.233-1.896-0.367-4.091-0.367-6.317 0-19.459 10.176-36.54 25.498-46.213l0.225-0.133c8.271-5.401 18.372-8.658 29.226-8.777h0.031c0.125-0.001 0.273-0.002 0.421-0.002 10.3 0 19.923 2.903 28.093 7.936l-0.232-0.133 121.417 72.168c84.521 0.684 160.404 37.103 213.381 94.87l0.196 0.216c16.091 0 32.67-2.926 48.762-3.413l196.51-118.004c10.757-6.385 23.702-10.181 37.53-10.24h0.017c0.176-0.002 0.385-0.002 0.593-0.002 40.126 0 72.655 32.529 72.655 72.655 0 3.267-0.216 6.484-0.634 9.637l0.040-0.37-17.554 139.947c103.428 75.58 170.025 196.224 170.666 332.454v0.102zM515.901 199.802c-6.032-12.51-12.526-23.22-19.905-33.24l0.4 0.569c-3.901-4.876-7.802-10.24-12.19-15.116-45.028-53.54-112.052-87.328-186.967-87.328-1.641 0-3.278 0.016-4.911 0.048l0.244-0.004c-0.148 0.003-0.323 0.005-0.498 0.005-4.504 0-8.711-1.272-12.28-3.477l0.101 0.058-127.269-76.556c-0.8-0.835-1.924-1.353-3.17-1.353s-2.369 0.519-3.168 1.352l-0.001 0.002c-0.687 0.947-1.099 2.132-1.099 3.413s0.412 2.467 1.11 3.43l-0.012-0.017 12.19 97.524c-0.079 9.054-4.892 16.967-12.081 21.392l-0.11 0.063c-58.78 39.176-97.092 105.034-97.524 179.866v0.065c0.794 78.203 42.104 146.585 103.911 185.242l0.927 0.541c39.061 25.381 86.841 40.474 138.146 40.474 0.29 0 0.58 0 0.87-0.001h-0.045c2.524 0.097 5.489 0.152 8.466 0.152 126.869 0 230.309-100.314 235.329-225.952l0.014-0.456c0.001-0.257 0.002-0.561 0.002-0.866 0-32.668-7.559-63.57-21.023-91.054l0.541 1.222zM813.349 232.472c-6.313-4.667-10.361-12.084-10.361-20.447 0-0.87 0.044-1.73 0.129-2.578l-0.009 0.107 19.017-154.088c0.163-1.059 0.256-2.28 0.256-3.523 0-8.478-4.327-15.946-10.894-20.314l-0.090-0.056c-3.625-2.183-8.001-3.474-12.678-3.474s-9.053 1.291-12.791 3.537l0.112-0.063-204.312 121.417c-7.457 2.829-16.078 4.467-25.083 4.467-3.191 0-6.333-0.206-9.415-0.604l0.364 0.038c14.578 23.7 25.732 51.294 31.888 80.724l0.295 1.684c0.112 2.111 0.175 4.584 0.175 7.070s-0.064 4.959-0.189 7.415l0.014-0.344c0 5.364 0 10.24 0 15.604s0 14.141 0 21.455c-5.077 153.023-130.344 275.142-284.135 275.142-2.967 0-5.923-0.045-8.868-0.136l0.431 0.010c-4.814 0.348-10.429 0.546-16.091 0.546s-11.278-0.198-16.841-0.588l0.749 0.042h2.438c-10.24 0-20.48-2.926-30.72-4.876v0c-12.753-3.301-23.31-6.803-33.567-10.9l1.871 0.66h-5.364c-10.452-3.458-19-6.924-27.284-10.855l1.44 0.615c0.975 203.337 182.37 371.078 405.211 371.078s406.187-169.204 406.187-377.417c-0.904-125.068-64.365-235.121-160.613-300.53l-1.277-0.818z" />
<glyph unicode="&#xe933;" glyph-name="premium-twitter-feed" d="M992.792 765.928c-3.999 2.866-8.992 4.583-14.385 4.583s-10.385-1.717-14.46-4.634l0.075 0.051c-4.499-3.16-9.64-5.946-15.096-8.112l-0.508-0.178c16.105 17.526 26.42 40.599 27.783 66.049l0.011 0.267c-0.593 13.263-11.489 23.792-24.845 23.792-5.509 0-10.599-1.791-14.721-4.823l0.069 0.048c-29.535-22.13-66.403-35.986-106.429-37.536l-0.359-0.011c-38.232 35.723-89.66 57.747-146.23 58.026h-0.056c-119.654-1.649-216.017-99.032-216.017-218.921 0-0.35 0.001-0.699 0.002-1.049v0.054c-0.225-3.571-0.353-7.744-0.353-11.947s0.128-8.376 0.381-12.515l-0.028 0.568c-195.048 6.827-353.524 195.048-354.987 195.048-4.774 5.709-11.899 9.314-19.866 9.314-0.559 0-1.114-0.018-1.664-0.053l0.075 0.004c-8.687-0.719-16.043-5.805-19.927-13.033l-0.065-0.133c-18.708-31.451-29.766-69.345-29.766-109.822 0-42.794 12.36-82.701 33.705-116.346l-0.526 0.887c-2.739 1.157-5.923 1.829-9.265 1.829s-6.526-0.672-9.425-1.889l0.161 0.060c-8.149-3.953-13.753-12.007-14.139-21.406l-0.002-0.049c-0.174-3.248-0.273-7.050-0.273-10.875 0-67.602 30.914-127.983 79.376-167.779l0.379-0.302c-1.797-1.373-3.39-2.811-4.858-4.369l-0.018-0.020c-4.18-4.508-6.745-10.565-6.745-17.221 0-2.374 0.326-4.672 0.936-6.851l-0.043 0.178c19.42-70.213 72.542-124.786 140.408-145.887l1.489-0.399c-48.944-28.73-107.795-45.697-170.61-45.697-18.958 0-37.554 1.545-55.671 4.517l1.976-0.268c-1.255 0.22-2.699 0.346-4.173 0.346-10.243 0-19.068-6.074-23.069-14.816l-0.065-0.158c-1.303-2.92-2.061-6.328-2.061-9.913 0-8.071 3.845-15.244 9.803-19.787l0.061-0.044c83.91-61.045 189.014-97.659 302.669-97.659 4.165 0 8.319 0.049 12.46 0.147l-0.615-0.011c1.23-0.009 2.684-0.014 4.139-0.014 40.804 0 80.654 4.088 119.161 11.877l-3.834-0.647c264.996 55.476 461.161 287.197 461.161 564.735 0 7.177-0.131 14.323-0.391 21.437l0.030-1.029c80.945 75.093 97.524 105.813 97.524 115.566 0.572 2.049 0.901 4.401 0.901 6.83 0 7.98-3.55 15.131-9.156 19.96l-0.034 0.029zM854.796 631.832c0.437-8.029 0.687-17.427 0.687-26.883 0-254.162-180.049-466.27-419.558-515.737l-3.407-0.588c-31.359-6.011-67.426-9.45-104.297-9.45-73.979 0-144.724 13.844-209.787 39.083l3.958-1.351c81.050 3.745 153.223 38.908 205.169 93.497l0.119 0.126c3.949 4.384 6.365 10.218 6.365 16.615 0 3.51-0.727 6.849-2.039 9.877l0.062-0.161c-4.019 8.678-12.474 14.682-22.376 15.114l-0.054 0.002c-58.012 1.427-108.216 33.529-135.145 80.648l-0.413 0.784c1.603-0.088 3.48-0.138 5.368-0.138 15.73 0 30.651 3.464 44.042 9.672l-0.648-0.269c8.513 3.629 14.371 11.926 14.371 21.592 0 1.156-0.084 2.292-0.246 3.403l0.015-0.126c-0.994 10.476-8.487 18.958-18.362 21.42l-0.168 0.035c-62.063 16.602-109.391 66.044-122.681 128.109l-0.199 1.11c11.871-4.818 25.642-7.613 40.065-7.613 4.612 0 9.157 0.286 13.619 0.841l-0.533-0.054c9.932 1.443 17.805 8.823 19.962 18.37l0.030 0.16c0.725 2.206 1.144 4.744 1.144 7.38 0 7.365-3.265 13.967-8.428 18.437l-0.031 0.026c-19.739 19.226-36.089 41.812-48.148 66.853l-0.614 1.414c-12.854 22.682-20.429 49.817-20.429 78.721 0 18.237 3.015 35.769 8.575 52.125l-0.337-1.14c62.903-63.878 214.552-195.048 398.872-186.758 7.617 0.583 14.227 4.45 18.481 10.172l0.048 0.068c2.983 3.998 4.776 9.037 4.776 14.494 0 2.304-0.32 4.533-0.917 6.645l0.041-0.172c-3.364 12.721-5.317 27.333-5.364 42.394v0.029c-0.004 0.438-0.006 0.956-0.006 1.474 0 92.496 74.433 167.607 166.668 168.704l0.104 0.001c0.66 0.009 1.44 0.015 2.22 0.015 45.826 0 87.297-18.648 117.238-48.769l0.008-0.008c4.588-4.344 10.73-7.087 17.51-7.313l0.044-0.001c3.28-0.172 7.121-0.27 10.985-0.27 20.544 0 40.442 2.768 59.34 7.951l-1.571-0.367c-10.023-10.087-20.68-19.508-31.921-28.212l-0.749-0.558c-5.84-4.594-9.556-11.661-9.556-19.595 0-3.304 0.644-6.457 1.814-9.341l-0.060 0.167c3.6-9.254 12.439-15.693 22.781-15.693 0.735 0 1.462 0.033 2.181 0.096l-0.093-0.007c4.876 0 17.554 0 34.133 4.389-13.166-13.166-27.794-27.794-44.861-43.398-4.798-4.534-7.788-10.938-7.802-18.039v-0.003z" />
<glyph unicode="&#xe934;" glyph-name="premium-unfold" d="M658.286 960h-292.571c-256.488 0-365.714-109.227-365.714-365.714v-292.571c0-256.488 109.227-365.714 365.714-365.714h292.571c256.488 0 365.714 109.227 365.714 365.714v292.571c0 256.488-109.227 365.714-365.714 365.714zM975.238 301.714c0-231.131-85.821-316.952-316.952-316.952h-292.571c-231.131 0-316.952 85.821-316.952 316.952v292.571c0 231.131 85.821 316.952 316.952 316.952h292.571c231.131 0 316.952-85.821 316.952-316.952zM731.429 448c0-13.465-10.916-24.381-24.381-24.381v0h-170.667v-170.667c0-13.465-10.916-24.381-24.381-24.381s-24.381 10.916-24.381 24.381v0 170.667h-170.667c-13.465 0-24.381 10.916-24.381 24.381s10.916 24.381 24.381 24.381v0h170.667v170.667c0 13.465 10.916 24.381 24.381 24.381s24.381-10.916 24.381-24.381v0-170.667h170.667c13.465 0 24.381-10.916 24.381-24.381v0z" />
<glyph unicode="&#xe935;" glyph-name="premium-vertical-scroll" d="M512 960c-215.444 0-390.095-174.652-390.095-390.095v0-243.81c0-215.444 174.652-390.095 390.095-390.095s390.095 174.652 390.095 390.095v0 243.81c0 215.444-174.652 390.095-390.095 390.095v0zM560.762 667.429v-97.524c0-26.93-21.831-48.762-48.762-48.762s-48.762 21.831-48.762 48.762v0 97.524c0 26.93 21.831 48.762 48.762 48.762s48.762-21.831 48.762-48.762v0zM853.333 326.095c0-188.513-152.82-341.333-341.333-341.333s-341.333 152.82-341.333 341.333v0 243.81c-0.001 0.259-0.001 0.565-0.001 0.872 0 179.934 139.227 327.35 315.829 340.395l1.124 0.067v-146.286c-42.422-11.197-73.192-49.225-73.192-94.44 0-1.085 0.018-2.165 0.053-3.241l-0.004 0.157v-97.524c0-53.861 43.663-97.524 97.524-97.524s97.524 43.663 97.524 97.524v0 97.524c-0.151 45.067-30.848 82.923-72.462 93.957l-0.68 0.153v149.699c177.727-13.112 316.953-160.528 316.953-340.462 0-0.307 0-0.613-0.001-0.92v0.048z" />
<glyph unicode="&#xe936;" glyph-name="premium-video-box" horiz-adv-x="1028" d="M860.023 77.461c-0.083-0.001-0.182-0.002-0.28-0.002-6.649 0-12.639 2.82-16.839 7.33l-0.013 0.014c-4.57 4.297-7.417 10.382-7.417 17.132s2.846 12.835 7.404 17.121l0.012 0.011c84.105 84.217 136.117 200.501 136.117 328.933s-52.012 244.717-136.123 328.938l0.005-0.005c-4.57 4.297-7.417 10.382-7.417 17.132s2.846 12.835 7.404 17.121l0.012 0.011c4.357 4.444 10.423 7.199 17.132 7.199s12.775-2.755 17.128-7.195l0.004-0.004c93.137-92.956 150.756-221.47 150.756-363.442s-57.619-270.486-150.748-363.433l-0.009-0.009c-4.175-4.239-9.977-6.865-16.393-6.865-0.26 0-0.519 0.004-0.776 0.013l0.038-0.001zM167.893 77.461c-0.083-0.001-0.182-0.002-0.28-0.002-6.649 0-12.639 2.82-16.839 7.33l-0.013 0.014c-93.137 92.956-150.756 221.47-150.756 363.442s57.619 270.486 150.748 363.433l0.009 0.009c4.411 4.326 10.46 6.996 17.132 6.996s12.721-2.67 17.136-7l-0.004 0.004c4.471-4.436 7.239-10.583 7.239-17.377s-2.768-12.941-7.238-17.375l-0.002-0.002c-84.105-84.217-136.117-200.501-136.117-328.933s52.012-244.717 136.123-328.938l-0.005 0.005c4.57-4.297 7.417-10.382 7.417-17.132s-2.846-12.835-7.404-17.121l-0.012-0.011c-4.213-4.524-10.203-7.344-16.851-7.344-0.099 0-0.197 0.001-0.295 0.002h0.015zM513.958-65.958c-61.553 0.436-120.382 11.522-174.922 31.502l3.602-1.154c-9.644 3.43-16.425 12.48-16.425 23.113 0 2.763 0.458 5.42 1.302 7.897l-0.051-0.172c3.226 9.693 12.214 16.559 22.806 16.559 2.879 0 5.64-0.507 8.198-1.438l-0.167 0.053c46.29-16.946 99.733-26.952 155.452-27.41l0.204-0.001c55.080 0.317 107.884 9.61 157.169 26.486l-3.471-1.033c2.391 0.877 5.152 1.385 8.031 1.385 10.592 0 19.58-6.866 22.757-16.389l0.049-0.169c0.793-2.305 1.251-4.962 1.251-7.725 0-10.633-6.781-19.682-16.254-23.060l-0.171-0.053c-50.467-17.764-108.662-28.139-169.245-28.39h-0.116zM675.488 884.13c-1.177-0.223-2.532-0.351-3.916-0.351s-2.739 0.128-4.052 0.372l0.136-0.021c-45.838 16.064-98.684 25.344-153.698 25.344s-107.86-9.28-157.060-26.36l3.362 1.016c-2.618-1.002-5.647-1.582-8.811-1.582-13.985 0-25.322 11.337-25.322 25.322 0 10.821 6.788 20.057 16.337 23.682l0.174 0.058c50.485 17.922 108.714 28.278 169.361 28.278s118.875-10.356 173.013-29.397l-3.651 1.119c11.901-1.957 20.87-12.168 20.87-24.474 0-13.689-11.097-24.785-24.785-24.785-1.383 0-2.739 0.113-4.060 0.331l0.144-0.020zM442.983 227.732c-0.12 0-0.261-0.001-0.403-0.001-19.661 0-38.092 5.269-53.956 14.472l0.516-0.276c-36.281 24.707-59.795 65.82-59.795 112.425 0 4.363 0.206 8.679 0.609 12.937l-0.042-0.543v162.998c-0.278 3.254-0.436 7.041-0.436 10.866 0 47.581 24.509 89.437 61.59 113.633l0.521 0.319c17.312 8.648 37.714 13.709 59.298 13.709 29.342 0 56.5-9.354 78.653-25.244l-0.406 0.277 141.95-82.233c44.055-20.622 74.784-63.123 78.293-113.133l0.024-0.427c-3.534-50.437-34.262-92.939-77.49-113.212l-0.827-0.349-141.95-82.233c-24.613-14.921-54.325-23.816-86.102-23.985h-0.047zM442.983 619.319c-0.433 0.012-0.942 0.019-1.453 0.019-10.488 0-20.295-2.919-28.651-7.989l0.246 0.139c-21.627-16.431-35.448-42.166-35.448-71.129 0-3.914 0.252-7.77 0.742-11.551l-0.047 0.447v-164.467c-0.442-3.335-0.695-7.19-0.695-11.105 0-28.963 13.821-54.698 35.228-70.969l0.22-0.16c10.292-4.438 22.274-7.019 34.859-7.019 20.245 0 38.93 6.68 53.971 17.956l-0.234-0.168 142.44 81.254c28.985 12.555 49.75 39.179 53.797 71.021l0.046 0.444c-4.094 32.285-24.858 58.909-53.264 71.241l-0.579 0.224-141.95 82.233c-16.63 11.006-36.725 18.108-58.367 19.559l-0.371 0.020z" />
<glyph unicode="&#xe937;" glyph-name="premium-video-box-2" d="M654.884 960h-285.767c-258.62 0-369.116-110.497-369.116-369.116v-285.767c0-258.62 110.497-369.116 369.116-369.116h285.767c258.62 0 369.116 110.497 369.116 369.116v285.767c0 258.62-110.497 369.116-369.116 369.116zM713.466 886.177c132.406-10.478 200.99-60.011 226.709-169.555h-226.709zM380.071 886.177h260.048v-169.555h-258.143zM308.629 886.177v-169.555h-224.804c25.719 109.544 94.303 159.077 226.709 169.555zM952.558 305.116c0-219.565-78.11-297.674-297.674-297.674h-285.767c-219.565 0-297.674 78.11-297.674 297.674v285.767c0 19.051 0 37.15 0 54.296h879.211c0-17.146 0-35.245 0-54.296zM468.659 156.041c-0.195-0.001-0.427-0.002-0.658-0.002-17.27 0-33.466 4.596-47.432 12.631l0.462-0.245c-31.659 21.204-52.222 56.833-52.222 97.264 0 2.981 0.112 5.935 0.331 8.86l-0.023-0.39v114.307c-0.196 2.535-0.308 5.489-0.308 8.47 0 40.431 20.563 76.060 51.801 96.998l0.421 0.266c15.054 7.506 32.791 11.898 51.555 11.898 24.471 0 47.197-7.472 66.021-20.258l-0.411 0.263 98.59-57.153c36.577-17.763 62.131-53.155 65.697-94.825l0.030-0.431c-1.849-43.861-27.641-81.29-64.574-99.713l-0.676-0.305-101.447-57.153c-19.153-11.908-42.177-19.384-66.86-20.47l-0.295-0.010zM468.659 435.14c-0.139 0.003-0.303 0.005-0.468 0.005-4.188 0-8.128-1.060-11.567-2.926l0.128 0.064c-10.213-9.273-16.6-22.603-16.6-37.424 0-2.254 0.148-4.474 0.434-6.649l-0.028 0.256v-114.307c-0.259-1.92-0.406-4.14-0.406-6.394 0-14.821 6.387-28.151 16.558-37.387l0.042-0.037c4.556-1.595 9.808-2.516 15.275-2.516 11.398 0 21.86 4.004 30.058 10.681l-0.087-0.068 99.542 57.153c18.099 10.478 29.529 24.29 29.529 35.721s-11.431 25.243-30.006 35.721l-99.066 57.153c-9.442 6.217-20.858 10.199-33.148 10.945l-0.192 0.009z" />
</font>
</defs>
</svg>
